Торренты   
 
 

 

Scorpions: Live - Get Your Sting & Blackout [2011 г., 1080p, BDRip, hard rock, Anamorph OverUnder]

Рейтинг 3D:
17 голосов
7.5
Рейтинг фильма:
19 голосов
7.0
 
Вы должны быть авторизированы,
чтобы ставить оценки



Live - Get Your Sting & Blackout
- Год выпуска: 2011
Страна: German
Жанр: hard rock , концерт.
Продолжительность: 01:53:59
Перевод: отсутствует.
Описание: Немецкая группа Скорпионс, ветераны рока, представляют концерт "Get Your Sting & Blackout - Live In 3D" на Blu-ray при содействии компании Sony. Диск содержит запись концерта 15 апреля 2011 в Саарбрюкен, Германия снятый с использованием последних технологий 3D, одинадцатью камерами, звуком 5.1.

Треклист:

01. Intro
02. Sting In The Tail
03. Make It Real
04. Bad Boys Running Wild
05. The Zoo
06. Coast To Coast
07. Loving You Sunday Morning
08. The Best Is Yet To Come
09. Send Me An Angel
10. Holiday
11. Raised On Rock
12. Tease Me Please Me
13. Dynamite
14. Kottak Attack
15. Blackout
16. Six String Sting
17. Big City Nights
18. Still Loving You
19. Wind Of Change
20. Rock You Like A Hurricane
21. When The Smoke Is Going Down

Формат 3d: Anamorph OverUnder
Видео: AVC, h264, 1920х1080 , 23,976 кадр/сек, 23,7 Мбит/сек
Аудио 1: Eng, Ger, AC-3, 6 каналов, 640 Кбит/сек, 48,0 КГц Вшитый
Аудио 2: Eng, Ger, DTS MA, 6 каналов, 5149 Кбит/сек , 24-бит, 48,0 КГц Отдельным файлом
Главы: Присутствуют

Скриншоты




МИ

Общее
Уникальный идентификатор : 181607504326467958387147076394242112220 (0x88A05544206263B4905CDC80D3917ADC)
Полное имя : Scorpions Live in 3d_Half_OU\Scorpions Live in 3d_Half_OU.mkv
Формат : Matroska
Версия формата : Version 2
Размер файла : 19,8 Гбайт
Продолжительность : 1 ч. 53 м.
Общий поток : 24,8 Мбит/сек
Дата кодирования : UTC 2011-11-17 15:26:36
Программа кодирования : mkvmerge v5.0.0 ('Die Wahre Liebe') built on Sep 25 2011 20:33:49
Библиотека кодирования : libebml v1.2.2 + libmatroska v1.3.0
Видео
Идентификатор : 1
Формат : AVC
Формат/Информация : Advanced Video Codec
Профиль формата : High@L4.1
Параметр CABAC формата : Да
Параметр ReFrames формата : 4 кадра
Идентификатор кодека : V_MPEG4/ISO/AVC
Продолжительность : 1 ч. 53 м.
Битрейт : 23,7 Мбит/сек
Ширина : 1920 пикселей
Высота : 1080 пикселей
Соотношение сторон : 16:9
Частота кадров : 23,976 кадра/сек
Цветовое пространство : YUV
Субдискретизация насыщенности : 4:2:0
Битовая глубина : 8 бит
Тип развёртки : Прогрессивная
Бит/(Пиксели*Кадры) : 0.477
Размер потока : 18,9 Гбайт (95%)
Заголовок : BDRip by TopGun
Библиотека кодирования : x264 core 116 r2074 2641b9e
Настройки программы : cabac=1 / ref=4 / deblock=1:-1:-1 / analyse=0x3:0x133 / me=umh / subme=9 / psy=1 / psy_rd=1.00:0.10 / mixed_ref=1 / me_range=16 / chroma_me=1 / trellis=2 / 8x8dct=1 / cqm=0 / deadzone=21,11 / fast_pskip=0 / chroma_qp_offset=-3 / threads=6 / sliced_threads=0 / nr=0 / decimate=1 / interlaced=0 / bluray_compat=0 / constrained_intra=0 / bframes=5 / b_pyramid=2 / b_adapt=2 / b_bias=0 / direct=3 / weightb=1 / open_gop=0 / weightp=2 / keyint=250 / keyint_min=23 / scenecut=40 / intra_refresh=0 / rc_lookahead=20 / rc=crf / mbtree=1 / crf=18.0 / qcomp=0.80 / qpmin=10 / qpmax=69 / qpstep=4 / vbv_maxrate=50000 / vbv_bufsize=60000 / crf_max=0.0 / nal_hrd=none / frame-packing=4 / ip_ratio=1.40 / aq=1:0.90
Язык : English
Default : Да
Forced : Нет
Аудио
Идентификатор : 2
Формат : AC-3
Формат/Информация : Audio Coding 3
Расширение режима : CM (complete main)
Идентификатор кодека : A_AC3
Продолжительность : 1 ч. 53 м.
Вид битрейта : Постоянный
Битрейт : 640 Кбит/сек
Каналы : 6 каналов
Расположение каналов : Front: L C R, Side: L R, LFE
Частота : 48,0 КГц
Битовая глубина : 16 бит
Метод сжатия : С потерями
Размер потока : 522 Мбайт (3%)
Язык : English
Default : Да
Forced : Нет
Меню
00:00:00.000 : :01. Intro
00:01:48.525 : :02. Sting In The Tail
00:05:15.899 : :03. Make It Real
00:09:12.969 : :04. Bad Boys Running Wild
00:13:09.205 : :05. The Zoo
00:18:59.138 : :06. Coast To Coast
00:24:12.868 : :07. Loving You Sunday Morning
00:29:00.739 : :08. The Best Is Yet To Come
00:36:53.628 : :09. Send Me An Angel
00:41:19.477 : :10. Holiday
00:48:10.888 : :11. Raised On Rock
00:52:19.553 : :12. Tease Me Please Me
00:57:50.884 : :13. Dynamite
01:01:42.699 : :14. Kottak Attack
01:08:45.121 : :15. Blackout
01:12:55.371 : :16. Six String Sting
01:15:53.549 : :17. Big City Nights
01:25:45.349 : :18. Still Loving You
01:32:24.956 : :19. Wind Of Change
01:37:50.865 : :20. Rock You Like A Hurricane
01:46:32.595 : :21. When The Smoke Is Going Down
01:51:12.958 : :22. Credits

Внимание! У кого на ТВ не показывает, не прет, не воспроизводит, не кажет, итд... прогоняем через MKVmergeGUI используя за основу эту инструкцию - MKVmergeGUI (инструкция по основным операциям редактирования) - Если не помогает, удаляем главы по этой же инструкции!
Благодарности релизеру (18)

Торрент:

Статус:

Размер:

Зарегистрирован   [ 2012-05-06 21:32 ]

проверено

23.87 GB