Торренты   
 
 

 

Крылатые монстры / Flying Monsters 3D with David Attenborough [2011г, 1080p, BDrip, Anamorph OverUnder]

Рейтинг 3D:
4 голосов
9.0
Рейтинг фильма:
4 голосов
8.8
 
Вы должны быть авторизированы,
чтобы ставить оценки


Крылатые монстрыFlying Monsters 3D with David Attenborough
Год выпуска: 2011
Страна: Великобритания (Serengeti Entertainment, Atlantic Productions)
Жанр: Документальный
Продолжительность: 01:10:40
Перевод: Одноголосый закадровый (В.Курдов)
Режиссер: Мэттью Диас / Matthew Dyas
В ролях: Дэвид Аттенборо, Дуглас А. Лоусон
Описание: Миллионы лет назад, когда на Земле царили динозавры, в воздухе царили летающие ящеры — птерозавры. В фильме известный натуралист и ведущий Дэвид Аттенборо рассказывает об этих существах.--За предоставленную русскую озвучку спасибо area51 и denn1121denn!
За предоставленные субтитры спасибо TheJoker!-- Проверено на встроенном плейере ТВ Samsung UE-C7000--Формат 3d: Anamorph OverUnder
Качество: BDrip
Контейнер: MKV
Видео: AVC / 1920х1080p / 23,976 fps / 11.3 Mbps
Аудио#1: Русский / AC3 / 48 KHz / 5.1 ch / 384 Kbps (AVO - В.Курдов)
Аудио#2: Английский / AC3 / 48 KHz / 5.1 ch / 640 Kbps
Субтитры: Русские вшитые softsub SRT

MediaInfo

General
UniqueID : 227034336859197588412855500281845419881 (0xAACD3907DB217D8D92B6E9C95E148F69)
Complete name : F:\Downloads\FlyingMonsters(3D)2011.halfOU.Rus(ash61).mkv
Format : Matroska
File size : 6.19 GiB
Duration : 1h 10mn
Overall bit rate : 12.5 Mbps
Movie name : Flying Monsters 3D with David Attenborough 2011 (ash61)
Encoded date : UTC 2012-05-02 06:56:14
Writing application : mkvmerge v3.4.0 ('Rapunzel') сборка от May 15 2010 09:38:20
Writing library : libebml v0.8.0 + libmatroska v0.9.0
Video
ID : 1
Format : AVC
Format/Info : Advanced Video Codec
Format profile : High@L4.1
Format settings, CABAC : Yes
Format settings, ReFrames : 4 frames
Codec ID : V_MPEG4/ISO/AVC
Duration : 1h 10mn
Bit rate : 11.3 Mbps
Width : 1 920 pixels
Height : 1 080 pixels
Display aspect ratio : 16:9
Frame rate : 23.976 fps
Color space : YUV
Chroma subsampling : 4:2:0
Bit depth : 8 bits
Scan type : Progressive
Bits/(Pixel*Frame) : 0.226
Stream size : 5.56 GiB (90%)
Title : Rip by Ash61
Writing library : x264 core 113 r1884 7313bb5
Encoding settings : cabac=1 / ref=4 / deblock=1:-3:-3 / analyse=0x3:0x113 / me=umh / subme=9 / psy=1 / psy_rd=1.00:0.15 / mixed_ref=1 / me_range=16 / chroma_me=1 / trellis=2 / 8x8dct=1 / cqm=0 / deadzone=21,11 / fast_pskip=1 / chroma_qp_offset=-3 / threads=3 / sliced_threads=0 / nr=0 / decimate=1 / interlaced=0 / constrained_intra=0 / bframes=6 / b_pyramid=2 / b_adapt=1 / b_bias=0 / direct=1 / weightb=1 / open_gop=0 / weightp=2 / keyint=250 / keyint_min=23 / scenecut=40 / intra_refresh=0 / rc_lookahead=60 / rc=crf / mbtree=1 / crf=18.0 / qcomp=0.70 / qpmin=0 / qpmax=69 / qpstep=4 / ip_ratio=1.40 / aq=1:1.00
Audio #1
ID : 2
Format : AC-3
Format/Info : Audio Coding 3
Mode extension : CM (complete main)
Codec ID : A_AC3
Duration : 1h 10mn
Bit rate mode : Constant
Bit rate : 384 Kbps
Channel(s) : 6 channels
Channel positions : Front: L C R, Side: L R, LFE
Sampling rate : 48.0 KHz
Bit depth : 16 bits
Compression mode : Lossy
Stream size : 194 MiB (3%)
Language : Russian
Audio #2
ID : 3
Format : AC-3
Format/Info : Audio Coding 3
Mode extension : CM (complete main)
Codec ID : A_AC3
Duration : 1h 10mn
Bit rate mode : Constant
Bit rate : 640 Kbps
Channel(s) : 6 channels
Channel positions : Front: L C R, Side: L R, LFE
Sampling rate : 48.0 KHz
Bit depth : 16 bits
Compression mode : Lossy
Stream size : 324 MiB (5%)
Language : English
Text
ID : 4
Format : UTF-8
Codec ID : S_TEXT/UTF8
Codec ID/Info : UTF-8 Plain Text
Language : Russian
Menu
00:00:00.000 : :01
00:07:24.027 : :02
00:13:11.040 : :03
00:21:49.266 : :04
00:28:23.994 : :05
00:35:48.772 : :06
00:40:41.564 : :07
00:45:56.045 : :08
00:53:42.594 : :09
01:05:00.772 : :10

Скриншоты

2.05.2012 - релиз обновлён - добавлены русская озвучка и русские субтитры. Желающие, скачайте заново торрент-файл
Благодарности релизеру (15)

Торрент:

Статус:

Размер:

Зарегистрирован   [ 2012-05-02 13:03 ]

проверено

6.19 GB