Торренты   
 
 

 

Пина: Танец страсти / Pina [2011, BDrip, half1080p, Anamorph OverUnder]

Рейтинг 3D:
3 голосов
9.3
Рейтинг фильма:
2 голосов
9.5
 
Вы должны быть авторизированы,
чтобы ставить оценки


Пина: Танец страсти в 3DPina
Год выпуска: 2011
Страна: Германия, Франция, Великобритания (Neue Road Movies...)
Жанр: Мюзикл, Балет, Авангард
Продолжительность: 01:43:23
Перевод: Профессиональный (многоголосый закадровый)
Режиссер: Вим Вендерс / Wim Wenders
В ролях: Пина Бауш, Реджина Адвенто, Малу Айродо, Рут Амаранте, Райнер Бер, Андрей Березин, Бенедикт Биллет, Клементайн Дилай...
Описание: Документальная лента о скончавшейся летом 2009 года легендарной немецкой танцовщице и хореографе Пине Бауш.
Доп. информация: Фильм специфический, на любителя...--Проверено на встроенном плейере ТВ Samsung UE-C7000 --Формат 3d: Anamorph OverUnder
Качество: BDrip
Контейнер: MKV
Видео: AVC / 1920х1080p / 23,976 fps / 13.9 Mbps
Аудио#1: Русский / AC3 / 48 KHz / 5.1 ch / 640 Kbps
Аудио#2: Немецкий / AC3 / 48 KHz / 5.1 ch / 640 Kbps

MediaInfo

General
UniqueID : 244552182633689819684597134243684693873 (0xB7FB0982A8B3711A8F2C39FA401C3771)
Complete name : F:\Downloads\Pina-3D.2011.halfOU.AC3(ash61).mkv
Format : Matroska
File size : 11.2 GiB
Duration : 1h 43mn
Overall bit rate : 15.5 Mbps
Movie name : Pina-3D (ash61)
Encoded date : UTC 2011-11-20 12:14:09
Writing application : mkvmerge v3.4.0 ('Rapunzel') сборка от May 15 2010 09:38:20
Writing library : libebml v0.8.0 + libmatroska v0.9.0
Video
ID : 1
Format : AVC
Format/Info : Advanced Video Codec
Format profile : High@L4.1
Format settings, CABAC : Yes
Format settings, ReFrames : 4 frames
Codec ID : V_MPEG4/ISO/AVC
Duration : 1h 43mn
Bit rate : 13.9 Mbps
Width : 1 920 pixels
Height : 1 080 pixels
Display aspect ratio : 16:9
Frame rate : 23.976 fps
Color space : YUV
Chroma subsampling : 4:2:0
Bit depth : 8 bits
Scan type : Progressive
Bits/(Pixel*Frame) : 0.279
Stream size : 10.0 GiB (90%)
Title : BDrip by Ash61
Writing library : x264 core 113 r1884 7313bb5
Encoding settings : cabac=1 / ref=4 / deblock=1:-3:-3 / analyse=0x3:0x113 / me=umh / subme=9 / psy=1 / psy_rd=1.00:0.15 / mixed_ref=1 / me_range=16 / chroma_me=1 / trellis=2 / 8x8dct=1 / cqm=0 / deadzone=21,11 / fast_pskip=1 / chroma_qp_offset=-3 / threads=3 / sliced_threads=0 / nr=0 / decimate=1 / interlaced=0 / constrained_intra=0 / bframes=6 / b_pyramid=2 / b_adapt=1 / b_bias=0 / direct=1 / weightb=1 / open_gop=0 / weightp=2 / keyint=250 / keyint_min=23 / scenecut=40 / intra_refresh=0 / rc_lookahead=60 / rc=crf / mbtree=1 / crf=18.0 / qcomp=0.70 / qpmin=0 / qpmax=69 / qpstep=4 / ip_ratio=1.40 / aq=1:1.00
Audio #1
ID : 2
Format : AC-3
Format/Info : Audio Coding 3
Mode extension : CM (complete main)
Codec ID : A_AC3
Duration : 1h 43mn
Bit rate mode : Constant
Bit rate : 640 Kbps
Channel(s) : 6 channels
Channel positions : Front: L C R, Side: L R, LFE
Sampling rate : 48.0 KHz
Bit depth : 16 bits
Compression mode : Lossy
Stream size : 473 MiB (4%)
Language : Russian
Audio #2
ID : 3
Format : AC-3
Format/Info : Audio Coding 3
Mode extension : CM (complete main)
Codec ID : A_AC3
Duration : 1h 43mn
Bit rate mode : Constant
Bit rate : 640 Kbps
Channel(s) : 6 channels
Channel positions : Front: L C R, Side: L R, LFE
Sampling rate : 48.0 KHz
Bit depth : 16 bits
Compression mode : Lossy
Stream size : 473 MiB (4%)
Language : German
Menu
00:00:00.000 : :01
00:02:40.160 : :02
00:07:25.862 : :03
00:14:47.720 : :04
00:17:43.062 : :05
00:23:41.920 : :06
00:29:12.876 : :07
00:32:20.564 : :08
00:38:42.862 : :09
00:44:20.074 : :10
00:50:10.007 : :11
00:56:51.950 : :12
01:02:03.011 : :13
01:07:15.657 : :14
01:13:23.816 : :15
01:20:34.246 : :16
01:25:03.932 : :17
01:30:26.630 : :18
01:36:19.983 : :19
01:39:52.820 : :20

Скриншоты

Господа копипастеры, пожалуйста, уважайте труд рипперов -
не "забывайте" указывать авторство в своих релизах!
Благодарности релизеру (6)

Торрент:

Статус:

Размер:

Зарегистрирован   [ 2011-11-20 18:29 ]

проверено

11.18 GB

 
 Мнение о фильме (1)





Фильм - воспоминание о танцовщице, актрисе, балерине, о которой раньше ничего не слышал, овеян грустью. В показанных танцах много непривычного, неожиданного, нового. Фильм для тех кому интересен балет и его история. 3D эффект обеспечивает большую глубину, но изображение не появляется впереди экрана ни разу. Качество изображения постоянно высокое, несмотря на то, что исполнение происходит на сцене, в зале, на улице и природе.