Торренты   
 
 

 

IMAX На глубине Морской / Under The Sea (Говард Холл) [2009 г., SideBySide, Bdrip, 60fps, 720p]

Рейтинг 3D:
13 голосов
8.2
Рейтинг фильма:
8 голосов
8.8
 
Вы должны быть авторизированы,
чтобы ставить оценки


IMAX На глубине Морской / Under The Sea
Год выпуска: 2009
Страна: США, Канада
Жанр: Документальный, видовой
Продолжительность: 00:40:49
Режиссер: Говард Холл
Описание: "Ничто не сравнится с изображениями в этом фильме. Режиссер Говард Холл умеет обращаться с подводной камерой, всеми ее 1300 фунтами [600кг], и лично провел под водой 358 часов из общих 2073 часов, проведенных съемочной группой (в целом, 1668 погружений, многие с использованием дыхательного аппарата замкнутого цикла, что позволяет погружаться на гораздо более длительное время, чем обычный акваланг).
Изображения впечатляют, и включают в себя снимки танцующих каракатиц, жалящего ската, окруженного рыбами, ждущими, пока его 6-футовые [180см] крылья схватят крошечную закуску с морского дна, карликовых полосатиков, камерных наутилусов [русск. название: наутилус помпилиус] (один из немногих оставшихся видов наутилусов, которых когда-то насчитывалось около 2000), несколько больших белых акул, морских змей, и колонии угрей, напоминающих стебли пшеницы под дуновением ветра, а также блистательные засады замаскированных маленьких обитателей рифов. Уровень музыкального сопровождения в фильме несколько выше того, что мы обычно наблюдаем в IMAX фильмах.
Фильм снимался в Индонезийских водах Кораллового треугольника, а также в прибрежных мангровых лесах, Большом Барьерном рифе, и южном побережье Австралии. При этом постоянно присутствует утверждение "океаны в опасности", которое кажется несколько навязчивым в фильме, который длится только 40 минут.
Следует информировать об опасности грозящей окружающей среде, но есть разница между информированием и вдалбливанием. В данном случае это более похоже на вдалбливание, так как определяя проблему, фильм не предлагает ее решения. В конце концов, такой фильм не станут смотреть ни загрязнители, ни бурильщики, так что большинство его зрителей, вероятно, уже заботятся об экологии. Понравится ли им нечто в стиле 'Soylent Green' ['Зеленый сойлент']?"
Доп. информация: Это конверт в 60 FPS.
Формат 3d: SideBySide
Порядок ракурсов: Параллельная пара

Скриншоты

МИ

General
Unique ID : 212509218828735276289575448570483118128 (0x9FDFC96BBA8EA5F0BFDB7A6D298B1030)
Complete name : D:\3D\Rips 60 fps\Under The Sea 2009.SBS.60fps.720p.AC3rus.mkv
Format : Matroska
Format version : Version 2
File size : 7.02 GiB
Duration : 40mn 51s
Overall bit rate : 24.6 Mbps
Encoded date : UTC 2011-11-21 07:43:11
Writing application : mkvmerge v5.0.1 ('Es ist Sommer') built on Oct 9 2011 11:55:43
Writing library : libebml v1.2.2 + libmatroska v1.3.0
Video
ID : 1
Format : AVC
Format/Info : Advanced Video Codec
Format profile : High@L5.0
Format settings, CABAC : Yes
Format settings, ReFrames : 15 frames
Muxing mode : Header stripping
Codec ID : V_MPEG4/ISO/AVC
Duration : 40mn 51s
Bit rate : 23.6 Mbps
Width : 2 560 pixels
Height : 720 pixels
Display aspect ratio : 3.556
Frame rate : 59.940 fps
Color space : YUV
Chroma subsampling : 4:2:0
Bit depth : 8 bits
Scan type : Progressive
Bits/(Pixel*Frame) : 0.214
Stream size : 6.75 GiB (96%)
Writing library : x264 core 116 r2074 2641b9e
Encoding settings : cabac=1 / ref=15 / deblock=1:-3:-3 / analyse=0x3:0x113 / me=umh / subme=9 / psy=1 / psy_rd=1.00:0.15 / mixed_ref=1 / me_range=16 / chroma_me=1 / trellis=2 / 8x8dct=1 / cqm=0 / deadzone=21,11 / fast_pskip=1 / chroma_qp_offset=-3 / threads=12 / sliced_threads=0 / nr=0 / decimate=1 / interlaced=0 / bluray_compat=0 / constrained_intra=0 / bframes=6 / b_pyramid=2 / b_adapt=2 / b_bias=0 / direct=3 / weightb=1 / open_gop=0 / weightp=2 / keyint=250 / keyint_min=25 / scenecut=40 / intra_refresh=0 / rc_lookahead=60 / rc=crf / mbtree=1 / crf=17.0 / qcomp=0.70 / qpmin=0 / qpmax=69 / qpstep=4 / ip_ratio=1.40 / aq=1:1.00
Audio
ID : 2
Format : AC-3
Format/Info : Audio Coding 3
Mode extension : CM (complete main)
Muxing mode : Header stripping
Codec ID : A_AC3
Duration : 40mn 51s
Bit rate mode : Constant
Bit rate : 448 Kbps
Channel(s) : 6 channels
Channel positions : Front: L C R, Side: L R, LFE
Sampling rate : 48.0 KHz
Bit depth : 16 bits
Compression mode : Lossy
Stream size : 131 MiB (2%)
Title : Russian
Language : Russian
Остальные раздачи этого фильма (2)
Благодарности релизеру (3)

Торрент:

Статус:

Размер:

Зарегистрирован   [ 2011-11-21 12:14 ]

проверено

7.02 GB

 
 Мнение о фильме (3)





Это с ничем несравнимый кайф просмотра. Спасибо!!!
 

скорости дайте!!!
 

кто скачал раздайте фильм, а то уже сутки скорость 0.