Торренты   
 
 

 

Конан / Conan the Barbarian (Маркус Ниспел) [2011 г., med_bad, OverUnder, BDrip 720p]

Рейтинг 3D:
3 голосов
2.6
Рейтинг фильма:
3 голосов
6.2
 
Вы должны быть авторизированы,
чтобы ставить оценки


[bad]
Название: Конан-варвар / Conan the Barbarian
Год выпуска: 2011
Страна: США
Студия: Millennium Films, Nu-Image Films, Paradox Entertainment
Жанр: фэнтези, боевик, приключения
Продолжительность: 01:52:42
Перевод: Профессиональный (полное дублирование)-Режиссер:
Маркус Ниспел / Marcus Nispel
В ролях:
Джейсон Момоа, Стивен Лэнг, Рэйчел Николс, Роуз МакГоун, Рон Перлман, Нонсо Анози, Саид Тагмауи, Боб Сапп, Лео Ховард, Стив О’Доннелл, Раад Рави, Лайла Руасс-Описание:
Природа наделила его силой. Гибель отца сделала его свирепым. Великий киммерийский воин Конан отправляется в дальнее странствие, чтобы совершить отмщение за кровь своего рода. Но поиски, которые начинаются как личная вендетта, вскоре оборачиваются эпической схваткой со сверхъестественными силами, поработившими народы великой Хайбории. Киммерийский воин — последняя надежда на спасение…- Качество: BDrip
Контейнер: MKV
Формат 3D: OverUnder / Вертикальная стереопара
Видео кодек: x264
Аудио кодек: AC3
Видео: x264, 1280x1440, 23.976 кадр/сек, 8222 Кбит/сек
Аудио 1: русский; AC3, 6 каналов, 448 Кбит/сек, 48,0 КГц
Аудио 2: английский; AC3, 6 каналов, 448 Кбит/сек, 48,0 КГц (отдельно на Narod.Ru)

СКРИНШОТЫ

MI


Общее
Уникальный идентификатор : 217325849431578704260842624975109577100 (0xA37F6FA4F7E4557B99D70EBDE3D7598C)
Полное имя : M:\3D-RuGroup\Conan.theBarbarian.3D.2011.BD3DRip.720p.OU.x264.AC3.3D-RuGroup.mkv
Формат : Matroska
Версия формата : Version 2
Размер файла : 6,96 Гбайт
Продолжительность : 1 ч. 52 м.
Общий поток : 8846 Кбит/сек
Название фильма : Conan.theBarbarian.3D.2011.BD3DRip.720p.OU.x264.AC3.3D-RuGroup
Дата кодирования : UTC 2011-11-22 09:40:22
Программа кодирования : mkvmerge v3.4.0 ('Rapunzel') сборка от May 15 2010 09:38:20
Библиотека кодирования : libebml v0.8.0 + libmatroska v0.9.0
Видео
Идентификатор : 1
Формат : AVC
Формат/Информация : Advanced Video Codec
Профиль формата : High@L4.0
Параметр CABAC формата : Да
Параметр ReFrames формата : 4 кадра
Идентификатор кодека : V_MPEG4/ISO/AVC
Продолжительность : 1 ч. 52 м.
Битрейт : 8222 Кбит/сек
Ширина : 1280 пикселей
Высота : 1440 пикселей
Соотношение сторон : 0,889
Частота кадров : 23,976 кадра/сек
Цветовое пространство : YUV
Субдискретизация насыщенности : 4:2:0
Битовая глубина : 8 бит
Тип развёртки : Прогрессивная
Бит/(Пиксели*Кадры) : 0.186
Размер потока : 6,47 Гбайт (93%)
Заголовок : Conan the Barbarian by 3D-RuGroup
Библиотека кодирования : x264 core 116 r2074 2641b9e
Настройки программы : cabac=1 / ref=4 / deblock=1:-3:-3 / analyse=0x3:0x133 / me=umh / subme=9 / psy=1 / psy_rd=1.00:0.15 / mixed_ref=1 / me_range=16 / chroma_me=1 / trellis=2 / 8x8dct=1 / cqm=0 / deadzone=21,11 / fast_pskip=0 / chroma_qp_offset=-3 / threads=3 / sliced_threads=0 / nr=0 / decimate=1 / interlaced=0 / bluray_compat=0 / constrained_intra=0 / bframes=6 / b_pyramid=2 / b_adapt=2 / b_bias=0 / direct=3 / weightb=1 / open_gop=0 / weightp=2 / keyint=250 / keyint_min=23 / scenecut=40 / intra_refresh=0 / rc_lookahead=40 / rc=crf / mbtree=1 / crf=18.0 / qcomp=0.70 / qpmin=10 / qpmax=69 / qpstep=4 / ip_ratio=1.40 / aq=1:0.70
Язык : English
Аудио
Идентификатор : 2
Формат : AC-3
Формат/Информация : Audio Coding 3
Расширение режима : CM (complete main)
Идентификатор кодека : A_AC3
Продолжительность : 1 ч. 52 м.
Вид битрейта : Постоянный
Битрейт : 448 Кбит/сек
Каналы : 6 каналов
Расположение каналов : Front: L C R, Side: L R, LFE
Частота : 48,0 КГц
Битовая глубина : 16 бит
Метод сжатия : С потерями
Размер потока : 361 Мбайт (5%)
Заголовок : Russian DUB (5.1 / 48 kHz / 448 kbps)
Язык : Russian
Меню
00:00:00.000 : :CHAPTER01
00:00:41.792 : :CHAPTER02
00:04:49.873 : :CHAPTER03
00:10:57.866 : :CHAPTER04
00:17:50.236 : :CHAPTER05
00:26:35.803 : :CHAPTER06
00:29:33.897 : :CHAPTER07
00:38:16.669 : :CHAPTER08
00:40:59.791 : :CHAPTER09
00:47:55.414 : :CHAPTER10
00:52:08.709 : :CHAPTER11
00:55:03.258 : :CHAPTER12
01:00:36.550 : :CHAPTER13
01:08:29.355 : :CHAPTER14
01:14:18.913 : :CHAPTER15
01:18:05.180 : :CHAPTER16
01:22:48.297 : :CHAPTER17
01:27:19.818 : :CHAPTER18
01:33:52.293 : :CHAPTER19
01:41:20.199 : :CHAPTER20
01:44:03.195 : :CHAPTER21

Знаете ли вы, что...

  • Келлан Латс пробовался на роль Конана.
  • Корина мог сыграть Микки Рурк.
  • Съёмки фильма происходили в Болгарии.
Благодарности релизеру (1)

Торрент:

Статус:

Размер:

Зарегистрирован   [ 2011-11-22 15:41 ]

проверено

6.96 GB