Торренты   
 
 

 

Ayumi Hamasaki - Arena Tour 2009 A: Next Level [2009г, 1080p, BDrip, Anamorph OverUnder]

Рейтинг 3D:
5 голосов
7.8
Рейтинг фильма:
5 голосов
7.0
 
Вы должны быть авторизированы,
чтобы ставить оценки


Ayumi Hamasaki - Arena Tour 2009 A: Next Level
Год выпуска: 2009
Страна: Япония
Жанр: Музыка, Поп
Продолжительность: 01:20:16
Перевод: Не требуется
Язык: Японский
Режиссёр: Hidetomo "Kome" Yoneda
Описание: Концерт популярной японской певицы Аюми Хамасаки.
Доп. информация: Красивое шоу, качественное 3Д.--Проверено на встроенном плейере ТВ Samsung UE-C7000
Внимание - высокий битрейт!!!--Формат 3d: Anamorph OverUnder
Качество: BDrip
Контейнер: MKV
Видео: AVC / 1920х1080p / 23,976 fps / 28.1 Mbps
Аудио: AC3 / 48 KHz / 5.1 ch / 640 Kbps

MediaInfo

General
UniqueID : 185628447885061879146033138918548028553 (0x8BA6BD16EF214280885072D3BFB3BC89)
Complete name : F:\Downloads\AyumiHamasaki.ArenaTour2009.NextLevel-3D.halfOU.AC3(ash61).mkv
Format : Matroska
File size : 16.5 GiB
Duration : 1h 20mn
Overall bit rate : 29.4 Mbps
Movie name : Ayumi Hamasaki - Arena Tour 2009 - Next Level (ash61)
Encoded date : UTC 2011-11-22 17:38:10
Writing application : mkvmerge v3.4.0 ('Rapunzel') сборка от May 15 2010 09:38:20
Writing library : libebml v0.8.0 + libmatroska v0.9.0
Video
ID : 1
Format : AVC
Format/Info : Advanced Video Codec
Format profile : High@L4.1
Format settings, CABAC : Yes
Format settings, ReFrames : 4 frames
Codec ID : V_MPEG4/ISO/AVC
Duration : 1h 20mn
Bit rate : 28.1 Mbps
Width : 1 920 pixels
Height : 1 080 pixels
Display aspect ratio : 16:9
Frame rate : 23.976 fps
Color space : YUV
Chroma subsampling : 4:2:0
Bit depth : 8 bits
Scan type : Progressive
Bits/(Pixel*Frame) : 0.566
Stream size : 15.8 GiB (96%)
Writing library : x264 core 113 r1884 7313bb5
Encoding settings : cabac=1 / ref=4 / deblock=1:-1:-1 / analyse=0x3:0x113 / me=umh / subme=9 / psy=1 / psy_rd=1.00:0.15 / mixed_ref=1 / me_range=16 / chroma_me=1 / trellis=1 / 8x8dct=1 / cqm=0 / deadzone=21,11 / fast_pskip=1 / chroma_qp_offset=-3 / threads=3 / sliced_threads=0 / nr=0 / decimate=1 / interlaced=0 / constrained_intra=0 / bframes=6 / b_pyramid=2 / b_adapt=2 / b_bias=0 / direct=3 / weightb=1 / open_gop=0 / weightp=2 / keyint=250 / keyint_min=23 / scenecut=40 / intra_refresh=0 / rc_lookahead=60 / rc=crf / mbtree=1 / crf=20.0 / qcomp=0.60 / qpmin=10 / qpmax=69 / qpstep=4 / vbv_maxrate=50000 / vbv_bufsize=50000 / crf_max=0.0 / nal_hrd=none / ip_ratio=1.40 / aq=1:1.00
Audio
ID : 2
Format : AC-3
Format/Info : Audio Coding 3
Mode extension : CM (complete main)
Codec ID : A_AC3
Duration : 1h 20mn
Bit rate mode : Constant
Bit rate : 640 Kbps
Channel(s) : 6 channels
Channel positions : Front: L C R, Side: L R, LFE
Sampling rate : 48.0 KHz
Bit depth : 16 bits
Compression mode : Lossy
Stream size : 368 MiB (2%)
Language : Japanese
Menu
00:00:00.000 : :01
00:00:45.045 : :02
00:03:28.792 : :03
00:07:50.220 : :04
00:12:22.742 : :05
00:16:45.004 : :06
00:20:17.842 : :07
00:24:41.480 : :08
00:29:26.765 : :09
00:33:23.168 : :10
00:38:58.336 : :11
00:43:34.612 : :12
00:49:11.949 : :13
00:55:16.313 : :14
00:56:04.111 : :15
01:00:57.279 : :16
01:07:48.982 : :17
01:15:15.511 : :18

Скриншоты

Треклист

1. Pieces Of Seven
2. Rule
3. Sunrise: Love Is All
4. Identity
5. In The Corner
6. Hope Or Pain
7. Green
8. Evolution
9. Signal
10. Rollin'
11. Sparkle
12. Next Level
13. Humming 7/4
14. Boys & Girls
15. My All
Господа копипастеры, пожалуйста, уважайте труд рипперов -
не "забывайте" указывать авторство в своих релизах!
Благодарности релизеру (13)

Торрент:

Статус:

Размер:

Зарегистрирован   [ 2011-11-23 01:26 ]

проверено

16.47 GB

 
 Мнение о фильме (4)





Очень качественное видео.
Много 3d вылетов - детали четкие, без размытий и раздваиваний.
Сам концерт не впечатлил, довольно примитивно.
 

Видео качественное, на старом плеере popcorn a-110 не тянуло, на дюне base 3D идет замечательно.
 

3D-эффекты неплохие. вылеты чувствуются, глубина тоже присутствует.
Сам концерт на уровне для этого исполнителя - в первой половине презентовала каждую песню в новом костюме (как бы миниклип, но вживую), во второй части просто исполняла старые песни. Финал красив, на концертах наших исполнителей такого никогда не было и не будет =)
 

Очень качественное видео.
Много 3d вылетов - детали четкие, без размытий и раздваиваний.

Ну тоже глянул,Всё отлично!!!Благодаря Саше познакомился с этой Исполнительницей.
Ашу Всего самого Наилучшего!!! Таких Людей мало.