Торренты   
 
 


Тор / Thor (Кеннет Брэна, Джосс Уидон / Kenneth Branagh, Joss Whedon) [2011 г., SideBySide, 60fps, BDrip, 720p]

Рейтинг 3D:
61 голосов
6.8
Рейтинг фильма:
62 голосов
7.6
 
Вы должны быть авторизированы,
чтобы ставить оценки


Тор / Thor
Год выпуска: 2011
Страна: США
Жанр: фэнтези, боевик, приключения
Продолжительность: 01:54:50
Режиссер: Кеннет Брэна, Джосс Уидон / Kenneth Branagh, Joss Whedon
В ролях: Крис Хемсворт, Натали Портман, Энтони Хопкинс, Том Хиддлстон, Стеллан Скарсгард, Кэт Деннингс, Кларк Грегг, Идрис Эльба, Колм Фиор, Рэй Стивенсон, Джейми Александр, Рене Руссо
Описание: Эпическое приключение происходит как на нашей планете Земля, так и в вымышленном королевстве богов Асгарде. В центре истории — Могучий Тор, сильный, но высокомерный воин, чьи безрассудные поступки возрождают древнюю войну в Асгарде. Тора отправляют в ссылку на Землю, лишают сил и заставляют жить среди обычных людей в качестве наказания…
Доп. информация:
Внимание, это конверт в 60 FPS
Плавное видео при помощи mvtools2.
bframes=10, ref=16. Возможна высокая нагрузка на процессор и может не работать на многих декодерах, ffdshow предпочтителен.

Формат 3d: SideBySide
Порядок ракурсов: Параллельная пара

Скриншоты

МИ

General
Unique ID : 243900638092885903924585660202555666931 (0xB77D8DE26623AD79BA6594C2D4B9F1F3)
Complete name : D:\3D\Rips 60 fps\Thor 2011.SBS.60fps.720p.crop.AC3.mkv
Format : Matroska
Format version : Version 2
File size : 10.3 GiB
Duration : 1h 54mn
Overall bit rate : 12.9 Mbps
Encoded date : UTC 2011-11-23 09:19:38
Writing application : mkvmerge v5.0.1 ('Es ist Sommer') built on Oct 9 2011 11:55:43
Writing library : libebml v1.2.2 + libmatroska v1.3.0
Video
ID : 1
Format : AVC
Format/Info : Advanced Video Codec
Format profile : High@L5.0
Format settings, CABAC : Yes
Format settings, ReFrames : 16 frames
Muxing mode : Header stripping
Codec ID : V_MPEG4/ISO/AVC
Duration : 1h 54mn
Bit rate : 12.0 Mbps
Width : 2 560 pixels
Height : 544 pixels
Display aspect ratio : 4.706
Frame rate : 59.940 fps
Color space : YUV
Chroma subsampling : 4:2:0
Bit depth : 8 bits
Scan type : Progressive
Bits/(Pixel*Frame) : 0.144
Stream size : 9.63 GiB (93%)
Writing library : x264 core 116 r2074 2641b9e
Encoding settings : cabac=1 / ref=16 / deblock=1:-3:-3 / analyse=0x3:0x113 / me=umh / subme=9 / psy=1 / psy_rd=1.00:0.15 / mixed_ref=1 / me_range=16 / chroma_me=1 / trellis=2 / 8x8dct=1 / cqm=0 / deadzone=21,11 / fast_pskip=1 / chroma_qp_offset=-3 / threads=12 / sliced_threads=0 / nr=0 / decimate=1 / interlaced=0 / bluray_compat=0 / constrained_intra=0 / bframes=10 / b_pyramid=2 / b_adapt=2 / b_bias=0 / direct=3 / weightb=1 / open_gop=0 / weightp=2 / keyint=250 / keyint_min=25 / scenecut=40 / intra_refresh=0 / rc_lookahead=60 / rc=crf / mbtree=1 / crf=16.0 / qcomp=0.70 / qpmin=0 / qpmax=69 / qpstep=4 / ip_ratio=1.40 / aq=1:1.00
Audio
ID : 2
Format : AC-3
Format/Info : Audio Coding 3
Mode extension : CM (complete main)
Muxing mode : Header stripping
Codec ID : A_AC3
Duration : 1h 54mn
Bit rate mode : Constant
Bit rate : 640 Kbps
Channel(s) : 6 channels
Channel positions : Front: L C R, Side: L R, LFE
Sampling rate : 48.0 KHz
Bit depth : 16 bits
Compression mode : Lossy
Stream size : 526 MiB (5%)
Остальные раздачи этого фильма (6)
Благодарности релизеру (2)

Торрент:

Статус:

Размер:

Зарегистрирован   [ 2011-11-23 13:44 ]

проверено

10.35 GB

 
 Мнение о фильме (7)





Фильм классный..предшественник Саги о спасателях..поставлен динамично..красочно..Работа по переформатированию отличная..глубокое 3D Получил истинное наслаждение от просмотра. Спасибо!
 

Фильм замечательный.Действительно глубокое 3D.Рекомендую к просмотру.Спасибо.
 

Фильм красочный и 3-д эффекты на уровне! Советую
 

Глубина фильма действительно глубокая, но вылетов нету!
 

Фильм зрелищный хоть и сказка а смотреть интересно
 

Фильм Хороший
 

Фильм достаточно банален. Но посмотреть его стоит хотя бы ради второй части, которая, как ни удивительно, во многом превзошла первую. 3D неплохое. Действительно, берет больше глубиной, чем вылетами.