Торренты   
 
 

 

Монстры против пришельцев 3D / Monsters vs Aliens 3D (Роб Леттерман, Конрад Вернон) [2009 г.,BDRip, 1080p, Anamorph OverUnder]

Рейтинг 3D:
50 голосов
8.7
Рейтинг фильма:
49 голосов
8.4
 
Вы должны быть авторизированы,
чтобы ставить оценки



Монстры против пришельцев 3D / Monsters vs Aliens 3D
-Год выпуска: 2009
Страна: США
Жанр: Мультфильм, фантастика, боевик, комедия
Продолжительность: 01:34:30
Перевод: Профессиональный (полное дублирование)
Режиссер: Роб Леттерман, Конрад Вернон-
Роли озвучивали: [Eng]: Риз Уизерспун, Сет Роген, Хью Лори, Уилл Арнетт, Кифер Сазерленд, Рэйн Уилсон, Стефен Колбер, Пол Радд, Джули Уайт, Джефри Тэмбор.
[Rus]: Глюкоза, Виктор Логинов, Александр Ревва, Дмитрий Дюжев, Сергей Гармаш.

Описание: В Сюзан Мёрфи, девушку из Калифорнии, прямо в день ее свадьбы попадает метеорит, полный всякой дряни из космоса, в результате чего она вдруг начинает расти и вырастает до пятнадцати метров. Встревоженные появлением нового монстра, военные сразу берутся за дело: Сюзан отлавливают и увозят на секретную правительственную базу.
Там её переименовывают в Гигантику и запирают вместе с другими монстрами: гениальным, но насекомоголовым доктором наук Тараканом; брутальным рыбочеловеком по кличке Недостающее Звено; желеподобным и неубиваемым Б. О. Бом и стометровым Насекомозавром. Правда, их тюремное заключение длится недолго: на Землю нападает инопланетный робот, и отчаявшийся Президент, поддавшись уговорам генерала Воякера, отправляет разношерстную команду монстров на спасение планеты от неминуемой гибели.- -Качество: BDRip
Формат: MKV
Видео: AVC / 1920x1080 / 23.976fps / 6198 Кбит/сек
Аудио [rus]: AC3 / 6ch / 640 Kbps / 48 KHz
Аудио [eng]: AC3 / 6ch / 640 Kbps / 48 KHz Отдельным файлом
Формат 3d: Anamorph OverUnder
-
Лучшее "спасибо" - скачать сэмпл...

Скриншоты



Gif анимация

МИ

Общее
Уникальный идентификатор : 214861428962795486924026529708238456998 (0xA1A4CE5594280338AC0DCD2DA73C48A6)
Полное имя :Монстры против пришельцев_Half_OU\Монстры против пришельцев_Half_OU.mkv
Формат : Matroska
Версия формата : Version 2
Размер файла : 4,60 Гбайт
Продолжительность : 1 ч. 34 м.
Общий поток : 6977 Кбит/сек
Дата кодирования : UTC 2011-11-24 14:37:05
Программа кодирования : mkvmerge v5.0.0 ('Die Wahre Liebe') built on Sep 25 2011 20:33:49
Библиотека кодирования : libebml v1.2.2 + libmatroska v1.3.0
Видео
Идентификатор : 1
Формат : AVC
Формат/Информация : Advanced Video Codec
Профиль формата : High@L4.1
Параметр CABAC формата : Да
Параметр ReFrames формата : 4 кадра
Идентификатор кодека : V_MPEG4/ISO/AVC
Продолжительность : 1 ч. 34 м.
Битрейт : 6198 Кбит/сек
Ширина : 1920 пикселей
Высота : 1080 пикселей
Соотношение сторон : 16:9
Частота кадров : 23,976 кадра/сек
Цветовое пространство : YUV
Субдискретизация насыщенности : 4:2:0
Битовая глубина : 8 бит
Тип развёртки : Прогрессивная
Бит/(Пиксели*Кадры) : 0.125
Размер потока : 4,09 Гбайт (89%)
Заголовок : BDRip By TopGun
Библиотека кодирования : x264 core 116 r2074 2641b9e
Настройки программы : cabac=1 / ref=4 / deblock=1:-3:-3 / analyse=0x3:0x133 / me=umh / subme=9 / psy=1 / psy_rd=1.00:0.05 / mixed_ref=1 / me_range=16 / chroma_me=1 / trellis=2 / 8x8dct=1 / cqm=0 / deadzone=21,11 / fast_pskip=1 / chroma_qp_offset=-3 / threads=6 / sliced_threads=0 / nr=0 / decimate=1 / interlaced=0 / bluray_compat=0 / constrained_intra=0 / bframes=7 / b_pyramid=2 / b_adapt=2 / b_bias=0 / direct=3 / weightb=1 / open_gop=0 / weightp=2 / keyint=250 / keyint_min=23 / scenecut=40 / intra_refresh=0 / rc_lookahead=40 / rc=crf / mbtree=1 / crf=18.0 / qcomp=0.70 / qpmin=10 / qpmax=69 / qpstep=4 / vbv_maxrate=40000 / vbv_bufsize=30000 / crf_max=0.0 / nal_hrd=none / ip_ratio=1.40 / aq=1:0.70
Default : Да
Forced : Нет
Аудио
Идентификатор : 2
Формат : AC-3
Формат/Информация : Audio Coding 3
Расширение режима : CM (complete main)
Идентификатор кодека : A_AC3
Продолжительность : 1 ч. 34 м.
Вид битрейта : Постоянный
Битрейт : 640 Кбит/сек
Каналы : 6 каналов
Расположение каналов : Front: L C R, Side: L R, LFE
Частота : 48,0 КГц
Битовая глубина : 16 бит
Метод сжатия : С потерями
Размер потока : 432 Мбайт (9%)
Заголовок : Дубляж
Язык : Russian
Default : Да
Forced : Нет

Внимание! У кого на ТВ не показывает, не прет, не воспроизводит, не кажет, итд... прогоняем через MKVmergeGUI используя за основу эту инструкцию - MKVmergeGUI (инструкция по основным операциям редактирования) - Если не помогает, удаляем главы по этой же инструкции!
Остальные раздачи этого фильма (7)
Благодарности релизеру (13)

Торрент:

Статус:

Размер:

Зарегистрирован   [ 2012-05-06 21:24 ]

проверено

5.02 GB

 
 Мнение о фильме (9)





Мульт так себе , для детишек . Но 3Д очень прикольное ... Смотрел правда BD3D на LG LM55660S. Вылезания и вылеты из экрана очень эффектные..
 

3д очень прикольное.
 
Виталий Цыганов Профиль 16-Апр-2013 20:54

Мульт классный, юмор не тупой, очень смешно. Правда в конце немного скушновато. Но почти весь мульт - интересно и смешно!
 

В сюжет не вникал,дети смотрели,но эффекты и звук просто супер!Смотрел на Philips 37PFL6007k. Спасибо!
 

дети довольны смотрели на lg47lm640t
 

хороший мультик, 3d тоже на высоте
 

Отличный мультфильм с оригинальным юмором и переводом 3D эффекты на высоте.
 

Мультик хороший. Но для "семейного просмотра" я бы посоветовал какой-нибудь другой мультфильм... А для детей - отлично.
 

классный фильм. спасибо за раздачу.