Торренты   
 
 


Gnomeo & Juliet / Гномео и Джульетта (Келли Эсбёри) [2011 г., SideBySide, 60FPS, 720p, BDRIP, Rus+Ukr]

Рейтинг 3D:
Пока никто не голосовал
Рейтинг фильма:
Пока никто не голосовал
 
Вы должны быть авторизированы,
чтобы ставить оценки


Gnomeo & Juliet / Гномео и Джульетта
Год выпуска: 2011
Страна: США, Великобритания
Жанр: ультфильм, Фэнтези, Мелодрама, Комедия
Продолжительность: 01:23:49
Перевод: Профессиональный (полное дублирование)
Режиссер: Келли Эсбёри
В ролях: Джеймс МакЭвой, Эмили Блант, Эшли Дженсен, Майкл Кейн, Мэтт Лукас, Джим Каммингс, Мэгги Смит, Джейсон Стэтхэм, Оззи Осборн, Стефен Мерчант, Джули Уолтерс, Халк Хоган.
Описание: Интерпретация пьесы Уильяма Шекспира.
Они живут бок обок. Через забор. Пока нас нет, они живут своей жизнью, веселятся, враждуют и... влюбляются.
Так случилось, что они - садовые глиняные гномики, которые враждуют с давних времен. Две семьи - Капулетти и Монтеги. Лишь однажды, молодая Джульетта (из клана Капулетти - Красных Гномов) в поисках красивого цветка случайно столкнулась с другим молодым гномом из клана Монтеги (Синие гномы) и ... влюбилась. А как можно любить врага? Вот тут то и самое место романтическим приключениям...
Доп. информация: Внимание, это конверт в 60 FPS
Присутствует украинская дорожка.
Формат 3d: SideBySide
Порядок ракурсов: Параллельная пара

Скриншоты

МИ

General
Unique ID : 231693297571070652447973670910141389898 (0xAE4E818749F524348172D346BC37DC4A)
Complete name : D:\3D\Rips 60 fps\Gnomeo 3D.2011.SBS.60fps.720p.AC3rusukr.mkv
Format : Matroska
Format version : Version 2
File size : 7.69 GiB
Duration : 1h 23mn
Overall bit rate : 13.1 Mbps
Encoded date : UTC 2011-11-26 07:21:34
Writing application : mkvmerge v5.0.1 ('Es ist Sommer') built on Oct 9 2011 11:55:43
Writing library : libebml v1.2.2 + libmatroska v1.3.0
Video
ID : 1
Format : AVC
Format/Info : Advanced Video Codec
Format profile : High@L5.1
Format settings, CABAC : Yes
Format settings, ReFrames : 16 frames
Muxing mode : Header stripping
Codec ID : V_MPEG4/ISO/AVC
Duration : 1h 23mn
Bit rate : 11.8 Mbps
Width : 2 560 pixels
Height : 720 pixels
Display aspect ratio : 3.556
Frame rate : 59.940 fps
Color space : YUV
Chroma subsampling : 4:2:0
Bit depth : 8 bits
Scan type : Progressive
Bits/(Pixel*Frame) : 0.107
Stream size : 6.94 GiB (90%)
Writing library : x264 core 116 r2074 2641b9e
Encoding settings : cabac=1 / ref=16 / deblock=1:-3:-3 / analyse=0x3:0x113 / me=umh / subme=9 / psy=1 / psy_rd=1.00:0.15 / mixed_ref=1 / me_range=16 / chroma_me=1 / trellis=2 / 8x8dct=1 / cqm=0 / deadzone=21,11 / fast_pskip=1 / chroma_qp_offset=-3 / threads=12 / sliced_threads=0 / nr=0 / decimate=1 / interlaced=0 / bluray_compat=0 / constrained_intra=0 / bframes=10 / b_pyramid=2 / b_adapt=2 / b_bias=0 / direct=3 / weightb=1 / open_gop=0 / weightp=2 / keyint=250 / keyint_min=25 / scenecut=40 / intra_refresh=0 / rc_lookahead=60 / rc=crf / mbtree=1 / crf=16.0 / qcomp=0.70 / qpmin=0 / qpmax=69 / qpstep=4 / ip_ratio=1.40 / aq=1:1.00
Audio #1
ID : 2
Format : AC-3
Format/Info : Audio Coding 3
Mode extension : CM (complete main)
Muxing mode : Header stripping
Codec ID : A_AC3
Duration : 1h 23mn
Bit rate mode : Constant
Bit rate : 640 Kbps
Channel(s) : 6 channels
Channel positions : Front: L C R, Side: L R, LFE
Sampling rate : 48.0 KHz
Bit depth : 16 bits
Compression mode : Lossy
Stream size : 384 MiB (5%)
Title : Rus
Language : Russian
Audio #2
ID : 3
Format : AC-3
Format/Info : Audio Coding 3
Mode extension : CM (complete main)
Muxing mode : Header stripping
Codec ID : A_AC3
Duration : 1h 23mn
Bit rate mode : Constant
Bit rate : 384 Kbps
Channel(s) : 6 channels
Channel positions : Front: L C R, Side: L R, LFE
Sampling rate : 48.0 KHz
Bit depth : 16 bits
Compression mode : Lossy
Stream size : 230 MiB (3%)
Title : Ukr
Language : Ukrainian
Благодарности релизеру (2)

Торрент:

Статус:

Размер:

Зарегистрирован   [ 2011-11-26 11:43 ]

проверено

7.69 GB