Торренты   
 
 


9 Трейлеров 3D фильмов [2011 г.,1080p, DCPrip, Anamorph OverUnder]

Рейтинг 3D:
Пока никто не голосовал
Рейтинг фильма:
Пока никто не голосовал
 
Вы должны быть авторизированы,
чтобы ставить оценки


9 Трейлеров 3D фильмов
Год выпуска: 2011
Жанр: Трейлеры
Продолжительность: 00:17:12--

--Содержание:
1. Orla Frøsnapper - Цирк! Цирк! Цирк!
2. Un monstre à Paris - Монстр в Париже
3. Dr. Seuss' The Lorax - Лоракс
4. Immortals - Война Богов: Бессмертные
5. The Darkest Hour - Фантом
6. Ghost Rider: Spirit of Vengeance - Призрачный гонщик 2
7. STAR WARS.EPISODE I–THE PHANTOM MENACE(3D) - Звездные войны.Эпизод 1–скрытая угроза(3D)
8. Бой с тенью 3: Последний раунд
9. Paranormal Xperience 3D - Шрамы 3D--Формат 3d: Anamorph OverUnder (левый ракурс верхний)
Качество: DCPrip
Контейнер: mkv
Видео: AVC / 1920х1080 / 23.976 fps / 9 936 Kbps
Аудио: Русский / AC3 / 6 ch / 448 Kbps / 48 KHz

MediaInfo:

Код:
General
Unique ID                        : 249343559911617827384828520510606691175 (0xBB95D2A6206496ECA46C5FA369B64B67)
Complete name                    : L:\_3D\3D-Trailers\9.Trailers.3d.Half.OU.mkv
Format                           : Matroska
File size                        : 1.27 GiB
Duration                         : 17mn 12s
Overall bit rate                 : 10.6 Mbps
Encoded date                     : UTC 2011-11-26 01:59:53
Writing application              : mkvmerge v4.0.0 ('The Stars were mine') сборка от Jun  6 2010 16:18:42
Writing library                  : libebml v1.0.0 + libmatroska v1.0.0
Video
ID                               : 1
Format                           : AVC
Format/Info                      : Advanced Video Codec
Format profile                   : High@L4.1
Format settings, CABAC           : Yes
Format settings, ReFrames        : 4 frames
Format settings, GOP             : M=1, N=48
Codec ID                         : V_MPEG4/ISO/AVC
Duration                         : 17mn 12s
Bit rate                         : 9 936 Kbps
Width                            : 1 920 pixels
Height                           : 1 080 pixels
Display aspect ratio             : 16:9
Frame rate                       : 23.976 fps
Color space                      : YUV
Chroma subsampling               : 4:2:0
Bit depth                        : 8 bits
Scan type                        : Progressive
Bits/(Pixel*Frame)               : 0.200
Stream size                      : 1.19 GiB (94%)
Writing library                  : x264 core 116 r2074 2641b9e
Encoding settings                : cabac=1 / ref=4 / deblock=1:-3:-3 / analyse=0x3:0x113 / me=umh / subme=9 / psy=1 / psy_rd=1.00:0.15 / mixed_ref=1 / me_range=16 / chroma_me=1 / trellis=2 / 8x8dct=1 / cqm=0 / deadzone=21,11 / fast_pskip=1 / chroma_qp_offset=-3 / threads=6 / sliced_threads=0 / nr=0 / decimate=1 / interlaced=0 / bluray_compat=0 / constrained_intra=0 / bframes=6 / b_pyramid=2 / b_adapt=2 / b_bias=0 / direct=3 / weightb=1 / open_gop=0 / weightp=2 / keyint=250 / keyint_min=23 / scenecut=40 / intra_refresh=0 / rc_lookahead=40 / rc=crf / mbtree=1 / crf=18.0 / qcomp=0.60 / qpmin=10 / qpmax=61 / qpstep=4 / ip_ratio=1.40 / aq=1:1.00
Language                         : English
Audio
ID                               : 2
Format                           : AC-3
Format/Info                      : Audio Coding 3
Mode extension                   : CM (complete main)
Codec ID                         : A_AC3
Duration                         : 17mn 12s
Bit rate mode                    : Constant
Bit rate                         : 448 Kbps
Channel(s)                       : 6 channels
Channel positions                : Front: L C R, Side: L R, LFE
Sampling rate                    : 48.0 KHz
Bit depth                        : 16 bits
Compression mode                 : Lossy
Stream size                      : 55.1 MiB (4%)
Language                         : Russian

Скриншоты





P.S.: Большое спасибо dekapot219, за предоставленный акк на дсп24ру.
Благодарности релизеру (1)

Торрент:

Статус:

Размер:

Зарегистрирован   [ 2011-11-26 17:24 ]

проверено

1.27 GB