Торренты   
 
 

 

Цирк дю Солей / Cirque du Soleil: Journey of Man 3D (Кейт Мелтон) [2000 г., 720p, 60fps, SideBySide, BDrip]

Рейтинг 3D:
1 голосов
9.0
Рейтинг фильма:
Пока никто не голосовал
 
Вы должны быть авторизированы,
чтобы ставить оценки


Цирк дю Солей / Cirque du Soleil: Journey of Man 3D
Год выпуска: 2000
Страна: США
Жанр: короткометражный мюзикл, фэнтези, драма, семейный
Продолжительность: 00:38:57
Перевод: Субтитры
Режиссер: Кейт Мелтон
Описание: Цирк… Атмосфера чуда и праздника витает в воздухе. Арена притягивает взгляды. И вот гаснет свет, дирижер взмахивает палочкой, оркестр берет первые такты… Представление начинается, и зал замирает в ожидании сказочного действа…
Cirque du Soleil был основан в 1984 году Лалиберте и Даниэлем Готье и базируется в канадском Монреале. Компания насчитывает более 4 тысяч человек, работающих в разных труппах, что позволяет давать представления в нескольких точках мира одновременно. Cirque du Soleil создал новый жанр, в котором сочетаются театр, хореография, акробатика. В спектаклях цирка никогда не задействовались животные.Cirque du Soleil отличается способностью чутко реагировать на происходящее в мире - так, в следующем году он представит шоу, посвященное жизни и творчеству Майкла Джексона. Кроме того, создатель цирка Ги Лалиберте старается не упускать новые рынки, будь то 3D- кинематограф или страны, где труппа может получить зрительское признание.
Доп. информация: Программное уплавление с interframe (60 fps) с сильными настройками компрессии (bframes 10, ref 16)

От себя могу добавить что Сони сделала очень сильный конверт, а сам фильм, очень крут.
Формат 3d: SideBySide
Порядок ракурсов: Параллельная пара

Скриншоты

МИ

General
Unique ID : 191765646975220211008775051132697206700 (0x9044B85DCF8650168A1B13B7442E5FAC)
Complete name : D:\3D\Rips 60 fps\Cirque du Soleil 3D.2011.SBS.60fps.720p.AC3eng.mkv
Format : Matroska
Format version : Version 2
File size : 4.95 GiB
Duration : 38mn 57s
Overall bit rate : 18.2 Mbps
Encoded date : UTC 2011-11-28 09:08:00
Writing application : mkvmerge v5.0.1 ('Es ist Sommer') built on Oct 9 2011 11:55:43
Writing library : libebml v1.2.2 + libmatroska v1.3.0
Video
ID : 2
Format : AVC
Format/Info : Advanced Video Codec
Format profile : High@L5.1
Format settings, CABAC : Yes
Format settings, ReFrames : 16 frames
Muxing mode : Header stripping
Codec ID : V_MPEG4/ISO/AVC
Duration : 38mn 57s
Bit rate : 17.4 Mbps
Width : 2 560 pixels
Height : 720 pixels
Display aspect ratio : 3.556
Frame rate : 59.940 fps
Color space : YUV
Chroma subsampling : 4:2:0
Bit depth : 8 bits
Scan type : Progressive
Bits/(Pixel*Frame) : 0.157
Stream size : 4.72 GiB (96%)
Writing library : x264 core 116 r2074 2641b9e
Encoding settings : cabac=1 / ref=16 / deblock=1:-3:-3 / analyse=0x3:0x113 / me=umh / subme=9 / psy=1 / psy_rd=1.00:0.15 / mixed_ref=1 / me_range=16 / chroma_me=1 / trellis=2 / 8x8dct=1 / cqm=0 / deadzone=21,11 / fast_pskip=1 / chroma_qp_offset=-3 / threads=12 / sliced_threads=0 / nr=0 / decimate=1 / interlaced=0 / bluray_compat=0 / constrained_intra=0 / bframes=10 / b_pyramid=2 / b_adapt=2 / b_bias=0 / direct=3 / weightb=1 / open_gop=0 / weightp=2 / keyint=250 / keyint_min=25 / scenecut=40 / intra_refresh=0 / rc_lookahead=60 / rc=crf / mbtree=1 / crf=15.0 / qcomp=0.70 / qpmin=0 / qpmax=69 / qpstep=4 / ip_ratio=1.40 / aq=1:1.00
Audio
ID : 3
Format : AC-3
Format/Info : Audio Coding 3
Mode extension : CM (complete main)
Muxing mode : Header stripping
Codec ID : A_AC3
Duration : 38mn 57s
Bit rate mode : Constant
Bit rate : 448 Kbps
Channel(s) : 5 channels
Channel positions : Front: L C R, Side: L R
Sampling rate : 48.0 KHz
Bit depth : 16 bits
Compression mode : Lossy
Stream size : 125 MiB (2%)
Title : Оригинал
Language : English
Text
ID : 1
Format : UTF-8
Codec ID : S_TEXT/UTF8
Codec ID/Info : UTF-8 Plain Text
Title : Russrt
Menu
00:00:00.000 : :Chapter 01
00:01:14.991 : :Chapter 02
00:02:50.503 : :Chapter 03
00:07:06.634 : :Chapter 04
00:10:04.145 : :Chapter 05
00:14:43.757 : :Chapter 06
00:17:05.941 : :Chapter 07
00:18:08.837 : :Chapter 08
00:20:15.631 : :Chapter 09
00:26:44.811 : :Chapter 10
00:27:32.317 : :Chapter 11
00:27:57.258 : :Chapter 12
00:31:16.124 : :Chapter 13
00:33:14.951 : :Chapter 14
00:34:40.161 : :Chapter 15
00:35:58.531 : :Chapter 16
Благодарности релизеру (3)

Торрент:

Статус:

Размер:

Зарегистрирован   [ 2011-11-28 13:28 ]

проверено

4.95 GB