Торренты   
 
 


Love Story [2011 г., SideBySide]

Рейтинг 3D:
Пока никто не голосовал
Рейтинг фильма:
Пока никто не голосовал
 
Вы должны быть авторизированы,
чтобы ставить оценки


Love Story

Год выпуска: 2011
Страна: Украина
Жанр: Любительское видео
Продолжительность: 00:02:48
http://www.youtube.com/watch?v=wKu5bcVTcN8&feature=player_detailpage

Скрины


Медиа Инфо

D:\ãîòîâîå\lovestoryo.mp4
General
Complete name : D:\ãîòîâîå\lovestoryo.mp4
Format : MPEG-4
Format profile : Base Media / Version 2
Codec ID : mp42
File size : 402 MiB
Duration : 2mn 48s
Overall bit rate : 20.0 Mbps
Encoded date : UTC 2011-11-30 15:32:01
Tagged date : UTC 2011-11-30 15:32:01
Video #2
ID : 2
Format : AVC
Format/Info : Advanced Video Codec
Format profile : Main@L5.0
Format settings, CABAC : Yes
Format settings, ReFrames : 5 frames
Codec ID : avc1
Codec ID/Info : Advanced Video Coding
Duration : 2mn 48s
Bit rate mode : Variable
Bit rate : 19.9 Mbps
Width : 1 920 pixels
Height : 1 080 pixels
Display aspect ratio : 16:9
Frame rate mode : Constant
Frame rate : 29.970 fps
Standard : NTSC
Color space : YUV
Chroma subsampling : 4:2:0
Bit depth : 8 bits
Scan type : Progressive
Bits/(Pixel*Frame) : 0.320
Stream size : 399 MiB (99%)
Language : English
Encoded date : UTC 2011-11-30 15:32:01
Tagged date : UTC 2011-11-30 15:32:01
Audio #1
ID : 1
Format : AAC
Format/Info : Advanced Audio Codec
Format version : Version 4
Format profile : LC
Format settings, SBR : No
Codec ID : 40
Duration : 2mn 48s
Bit rate mode : Constant
Bit rate : 128 Kbps
Channel(s) : 2 channels
Channel positions : Front: L R
Sampling rate : 44.1 KHz
Stream size : 2.57 MiB (1%)
Language : English
Encoded date : UTC 2011-11-30 15:32:01
Tagged date : UTC 2011-11-30 15:32:01
Описание: Вторая проба с отколиброванной спаркой
Формат 3d: SideBySide
Порядок ракурсов: Параллельная пара
Благодарности релизеру (0)

Торрент:

Статус:

Размер:

Зарегистрирован   [ 2011-11-30 20:04 ]

проверено

402 MB