Торренты   
 
 


Что будем делать с конвертами 60 к/с?

Рипы с авто-конвертированием 24к/с в 60 к/с - нужны?

Нужны   63%  63%  [ 23 ]
Не очень нужны   36%  36%  [ 13 ]

Всего проголосовало : 36

У нас на трекере назрел вопрос про раздачи с 60 кадрами в секунду, которые появляются стараниями bdwind. Мы уважаем работу релизеров и благодарны за нее. Но если так пойдет дальше, то мы можем дойти до момента, когда все релизы будут продублированы с большим количеством кадров.
Остается решить - нужен ли этот формат нашим пользователям? Ведь любая такая дублирующая раздача разделяет сидеров одного и того же фильма. Если нужно, то мы можем создать отдельный подраздел для этого формата. Если не нужно, то возможно стоит прекратить создание таких рипов.
Высказывайте свое мнение.
Комментарии:

Пред.  1, 2






samfednik
Ну вот по высоте немного и не хватает :) У меня то просто 720р, сделать больше - не получается :)
У меня его видео норм идет, но у меня 2600к :)
Но по сути 60 fps это псевдо эффект плавности,это почти тоже самое что из SDTV 720*576 делать FullHD 1980*1080,а вообще надо будет глянуть что это такое и с чем это едят...
Вот вот, надо глянуть, а не просто болтать :) C апскейлом сравнивать не надо по аналогии...
 

Да и у вас на скрине видно, что тоже рассинхрон идёт выводимого FPS от реального, т.е. ваш проц - тоже не справляется...
Так я и не говорил, что он у меня справляется. У меня самого Q9300 2.5ГГц без разгона, там, где динамичные сцены, начинает подтормаживать. Но я думаю, что на i7 такое видео бы пошло. Впрочем, вот у bdwind'а как раз и идёт.
 

Rishkhaan, понятно, проехалиツ
Кстати, никому не попадалось интерлейсное видео в 3ДБД? Можно было бы попробовать сделать видос с честным удвоением кадров.
 

Нашёл видео с горизонтальным перемещением, снятое на камеру Sony 3D. Тоже интерлейс - 29,970fps
http://dl.dropbox.com/u/28877157/00004.MTS

MediaInfo:

Код:
General
ID                               : 0 (0x0)
Complete name                    : L:\_3D\00004.MTS
Format                           : BDAV
Format/Info                      : Blu-ray Video
File size                        : 104 MiB
Duration                         : 33s 23ms
Overall bit rate                 : 26.5 Mbps
Maximum Overall bit rate         : 28.0 Mbps
Video #1
ID                               : 4113 (0x1011)
Menu ID                          : 1 (0x1)
Format                           : AVC
Format/Info                      : Advanced Video Codec
Format profile                   : High@L4.1
Format settings, CABAC           : Yes
Format settings, ReFrames        : 2 frames
Format settings, GOP             : M=1, N=30
Codec ID                         : 27
Duration                         : 32s 966ms
Bit rate mode                    : Variable
Maximum bit rate                 : 22.0 Mbps
Width                            : 1 920 pixels
Height                           : 1 080 pixels
Display aspect ratio             : 16:9
Frame rate                       : 29.970 fps
Color space                      : YUV
Chroma subsampling               : 4:2:0
Bit depth                        : 8 bits
Scan type                        : Interlaced
Scan order                       : Top Field First
Video #2
ID                               : 4114 (0x1012)
Menu ID                          : 1 (0x1)
Format                           : AVC
Format/Info                      : Advanced Video Codec
Format profile                   : Stereo High@L4.1
MultiView_Count                  : 2
Format settings, CABAC           : Yes
Format settings, ReFrames        : 2 frames
Codec ID                         : 32
Duration                         : 32s 966ms
Bit rate mode                    : Variable
Maximum bit rate                 : 22.0 Mbps
Width                            : 1 920 pixels
Height                           : 1 080 pixels
Display aspect ratio             : 16:9
Frame rate                       : 29.970 fps
Color space                      : YUV
Chroma subsampling               : 4:2:0
Bit depth                        : 8 bits
Scan type                        : Interlaced
Scan order                       : Bottom Field First
Audio
ID                               : 4352 (0x1100)
Menu ID                          : 1 (0x1)
Format                           : AC-3
Format/Info                      : Audio Coding 3
Mode extension                   : CM (complete main)
Codec ID                         : 129
Duration                         : 33s 56ms
Bit rate mode                    : Constant
Bit rate                         : 448 Kbps
Channel(s)                       : 6 channels
Channel positions                : Front: L C R, Side: L R, LFE
Sampling rate                    : 48.0 KHz
Bit depth                        : 16 bits
Compression mode                 : Lossy
Delay relative to video          : -67ms
Stream size                      : 1.77 MiB (2%)
Text
ID                               : 4608 (0x1200)
Menu ID                          : 1 (0x1)
Format                           : PGS
Codec ID                         : 144
Duration                         : 32s 467ms
Delay relative to video          : -67ms
Состряпал из него анаморф с удвоением кадров, начал смотреть и просто ОХРЕНЕЛ!!! Вот что получилось:
http://narod.ru/disk/33964725001/00004.mkv.html

MediaInfo:

Код:
General
Unique ID                        : 191538813584447584591700174567484061694 (0x9019089DE82F880BB66AA7F1238277FE)
Complete name                    : L:\_3D\00004.mkv
Format                           : Matroska
File size                        : 85.5 MiB
Duration                         : 32s 992ms
Overall bit rate                 : 21.7 Mbps
Encoded date                     : UTC 2011-12-11 08:39:55
Writing application              : mkvmerge v4.0.0 ('The Stars were mine') сборка от Jun  6 2010 16:18:42
Writing library                  : libebml v1.0.0 + libmatroska v1.0.0
Video
ID                               : 1
Format                           : AVC
Format/Info                      : Advanced Video Codec
Format profile                   : High@L4.2
Format settings, CABAC           : Yes
Format settings, ReFrames        : 4 frames
Codec ID                         : V_MPEG4/ISO/AVC
Duration                         : 33s 0ms
Bit rate                         : 20.9 Mbps
Width                            : 1 920 pixels
Height                           : 1 080 pixels
Display aspect ratio             : 16:9
Frame rate                       : 59.940 fps
Color space                      : YUV
Chroma subsampling               : 4:2:0
Bit depth                        : 8 bits
Scan type                        : Progressive
Bits/(Pixel*Frame)               : 0.168
Stream size                      : 82.1 MiB (96%)
Writing library                  : x264 core 116 r2074 2641b9e
Encoding settings                : cabac=1 / ref=4 / deblock=1:-3:-3 / analyse=0x3:0x113 / me=umh / subme=9 / psy=1 / psy_rd=1.00:0.15 / mixed_ref=1 / me_range=16 / chroma_me=1 / trellis=2 / 8x8dct=1 / cqm=0 / deadzone=21,11 / fast_pskip=1 / chroma_qp_offset=-3 / threads=6 / sliced_threads=0 / nr=0 / decimate=1 / interlaced=0 / bluray_compat=0 / constrained_intra=0 / bframes=6 / b_pyramid=2 / b_adapt=2 / b_bias=0 / direct=3 / weightb=1 / open_gop=0 / weightp=2 / keyint=250 / keyint_min=25 / scenecut=40 / intra_refresh=0 / rc_lookahead=40 / rc=crf / mbtree=1 / crf=18.0 / qcomp=0.60 / qpmin=1 / qpmax=61 / qpstep=4 / ip_ratio=1.40 / aq=1:1.00
Language                         : English
Audio
ID                               : 2
Format                           : AC-3
Format/Info                      : Audio Coding 3
Mode extension                   : CM (complete main)
Codec ID                         : A_AC3
Duration                         : 32s 992ms
Bit rate mode                    : Constant
Bit rate                         : 448 Kbps
Channel(s)                       : 2 channels
Channel positions                : Front: L R
Sampling rate                    : 48.0 KHz
Bit depth                        : 16 bits
Compression mode                 : Lossy
Stream size                      : 1.76 MiB (2%)
Language                         : English
После моего рипа оригинал смотрится как какое-то дёрганное УГ.
Попробуйте, должно понравиться ツ
 

samfednik
Классное видео, впечатлило. :) Его можно показывать тем, кто не знаком с 60fps.
 

samfednik А какой программой разбивали этот файл ?
http://rutracker.org/forum/viewtopic.php?p=49618675#49618675
 

roma18
Эта программа стереоскопик плеером зовётся, и метод варварский:
http://torrents3d.ru/viewtopic.php?p=26862#26862
 

samfednik А где скачать такой плеер? И как потом совместить вда изображения в стерео ?
 

60 кадров это здорово. но надо и 720р 3д 60fps делать, а не только фулхд 60к. для тех у кого не 4 ядра на процессоре, а например 2 ядра - такие компы максимум тянут 720р 3д 60fps. А ведь есть еще раздачи где полноформатное фхд с разрешением вроде 1920х2160 и что за проц потянет его в 60к и 3д. Стоит организовать опрос какие процы и мониторы у посетителей, чтобы понимать в какие параметры загонять конверт фильма, иначе 1% нормально посмотрит, остальные будут плеваться с тормозов (имхо)
Зы и еще мне кажется важным в рипах оставлять дтс дорогу с субтитрами, я напрмер начал перкачивать блюрики и пересматривать с дтс хд дорогой, на некоторых материалах разница в звуке колоссальна.(тоже имхо)
 

Вот бы эти ролики найти для 5Д атракционов, в оригинале они Full HD 1920×1080 с частотой 60 кадров в секунду! Ни у кого не завалялись? ツ
 

Вот бы эти ролики найти для 5Д атракционов, в оригинале они Full HD 1920×1080 с частотой 60 кадров в секунду! Ни у кого не завалялись? ツ
:-)
У кого завалялись, пишите мне в личку, озолочу!
 

Страница 2 из 2

Пред.  1, 2