Торренты   
 
 


TT3D: Closer to the Edge [2011г, BDrip, 1080p, Anamorph OverUnder]

Рейтинг 3D:
Пока никто не голосовал
Рейтинг фильма:
2 голосов
9.0
 
Вы должны быть авторизированы,
чтобы ставить оценки


TT3D: Closer to the Edge
Год выпуска: 2011
Страна: Великобритания (CinemaNX, Isle of Man Film Ltd.)
Жанр: Документальный, Спорт, Мотогонки (Tourist Trophy)
Продолжительность: 01:43:34
Перевод: Отсутствует
Язык: Английский
Режиссер: Richard De Aragues
Действующие лица: Guy Martin, Ian Hutchinson, John McGuinness, Michael Dunlop, Keith Amor, Bruce Anstey, John Barton, Paul Dobbs, Cameron Donald, Ryan Farquhar, Dave Hewson, Gary Johnson, Mark Miller
Описание: "Захватывающий рассказ о состязаниях в классе TT`s, вошедших в историю как уникальные дорожные гонки на острове Мэн. Этот документальный фильм расскажет и покажет, почему даже сегодня гонщики TT рискуют своей жизнью всякий раз, когда выходят на очередной этап этого соревнования. The Isle of Man Tourist Trophy - одно из величайших соревнований, бросающее вызов байкам и их гонщикам. Оно всегда выходило за рамки других, обычных гонок и многим участвующим в этих соревнованиях пришлось пожертвовать своими жизнями в стремлении к победе. Это рассказ о свободе выбора, силе человеческого духа и воли к победе. Вы узнаете, что мотивирует тех редких бравых парней бросать вызов этим соревнованиям, что движет ими к победе. Продюсер и режиссер фильма Richard de Aragues обещает – это будет один из самых захватывающих фильмов 2011 года!"--Проверено на встроенном плейере ТВ Samsung UE-C7000 --Формат 3d: Anamorph OverUnder
Качество: BDrip
Контейнер: MKV
Видео: AVC / 1920х1080p / 23,976 fps / 12.2 Mbps
Аудио: Английский / AC3 / 48 KHz / 5.1 ch / 640 Kbps

MediaInfo

General
UniqueID : 230780904503158364222248458551294425771 (0xAD9EC913BED05194835D193F5587FAAB)
Complete name : F:\Downloads\TT3D.CloserToTheEdge-3D.2011.halfOU.AC3(ash61).mkv
Format : Matroska
File size : 9.49 GiB
Duration : 1h 43mn
Overall bit rate : 13.1 Mbps
Movie name : TT: Closer To The Edge-3D (ash61)
Encoded date : UTC 2011-12-06 11:50:28
Writing application : mkvmerge v3.4.0 ('Rapunzel') сборка от May 15 2010 09:38:20
Writing library : libebml v0.8.0 + libmatroska v0.9.0
Video
ID : 1
Format : AVC
Format/Info : Advanced Video Codec
Format profile : High@L4.1
Format settings, CABAC : Yes
Format settings, ReFrames : 4 frames
Codec ID : V_MPEG4/ISO/AVC
Duration : 1h 43mn
Bit rate : 12.2 Mbps
Width : 1 920 pixels
Height : 1 080 pixels
Display aspect ratio : 16:9
Frame rate : 23.976 fps
Color space : YUV
Chroma subsampling : 4:2:0
Bit depth : 8 bits
Scan type : Progressive
Bits/(Pixel*Frame) : 0.246
Stream size : 8.84 GiB (93%)
Title : BDrip by ash61
Writing library : x264 core 113 r1884 7313bb5
Encoding settings : cabac=1 / ref=4 / deblock=1:-3:-3 / analyse=0x3:0x113 / me=umh / subme=9 / psy=1 / psy_rd=1.00:0.15 / mixed_ref=1 / me_range=16 / chroma_me=1 / trellis=1 / 8x8dct=1 / cqm=0 / deadzone=21,11 / fast_pskip=1 / chroma_qp_offset=-3 / threads=3 / sliced_threads=0 / nr=0 / decimate=1 / interlaced=0 / constrained_intra=0 / bframes=6 / b_pyramid=2 / b_adapt=2 / b_bias=0 / direct=3 / weightb=1 / open_gop=0 / weightp=2 / keyint=250 / keyint_min=23 / scenecut=40 / intra_refresh=0 / rc_lookahead=60 / rc=crf / mbtree=1 / crf=18.0 / qcomp=0.70 / qpmin=0 / qpmax=69 / qpstep=4 / ip_ratio=1.40 / aq=1:0.70
Audio
ID : 2
Format : AC-3
Format/Info : Audio Coding 3
Mode extension : CM (complete main)
Codec ID : A_AC3
Duration : 1h 43mn
Bit rate mode : Constant
Bit rate : 640 Kbps
Channel(s) : 6 channels
Channel positions : Front: L C R, Side: L R, LFE
Sampling rate : 48.0 KHz
Bit depth : 16 bits
Compression mode : Lossy
Stream size : 474 MiB (5%)
Language : English
Menu
00:00:00.000 : :01
00:08:40.979 : :02
00:14:07.597 : :03
00:23:16.478 : :04
00:30:03.301 : :05
00:42:46.773 : :06
00:52:59.176 : :07
01:04:31.743 : :08
01:12:22.338 : :09
01:19:47.533 : :10
01:25:59.821 : :11
01:37:54.202 : :12

Скриншоты

Господа копипастеры, пожалуйста, уважайте труд рипперов -
не "забывайте" указывать авторство в своих релизах!
Благодарности релизеру (2)

Торрент:

Статус:

Размер:

Зарегистрирован   [ 2011-12-06 18:47 ]

проверено

9.49 GB