Торренты   
 
 

 

Повелитель стихий в 3Д / The Last Airbender 3D (М. Найт Шьямалан / M. Night Shyamalan) [2010 г.,med_bad, BDrip, 720p, OverUnder]

Рейтинг 3D:
10 голосов
3.5
Рейтинг фильма:
12 голосов
5.9
 
Вы должны быть авторизированы,
чтобы ставить оценки


[bad]
Название: Повелитель стихий 3Д / The Last Airbender 3D
Год выпуска: 2010
Страна: США
Жанр: фэнтези, приключения, боевик
Продолжительность: 01:43:13
Перевод: Профессиональный (полное дублирование)
Субтитры: Нет-Режиссер:
М. Найт Шьямалан / M. Night Shyamalan
В ролях:
Ноа Рингер (Aang), Дев Патель (Prince Zuko), Никола Пельтц (Katara), Джексон Рэтбоун (Sokka), Шон Тоуб (Uncle Iroh), Аасиф Мандви (Commander Zhao), Клифф Кёртис (Fire Lord Ozai), Сейшелл Гэбриел (Princess Yue), Кэтрин Хотон (Katara's Grandma), Френсис Гуинан (Master Pakku), Дэймон Гаптон (Monk Gyatso), Саммер Бишил (Azula)-Описание:
Воздушные кочевники, Племя Воды, Царство Земли и Народ Огня. Четыре нации были связаны судьбой, когда Народ Огня начал жестокую войну против всех. Прошло сто лет без надежды что-то изменить в этом мире. Народ Огня почти близок к победе в войне.
Оказавшись между борьбой и храбростью, юный Аанг понимает, что он — Аватар, обладающий силой повелевать четырьмя стихиями, и то, что только он может вернуть баланс и восстановить мир на земле. Вместе с юной повелительницей воды Катарой и её братом Соккой он отправляется в путешествие.
-
Качество: BDrip
Контейнер: MKV
Формат 3D: OverUnder / Вертикальная стереопара
Видео кодек: x264
Аудио кодек: AC3
Видео: x264, 1280x1088, 23.976 кадр/сек, 7783 Кбит/сек
Аудио 1: русский; AC3, 6 каналов, 640 Кбит/сек, 48,0 КГц

СКРИНШОТЫ

MI


Общее
Уникальный идентификатор : 222532075601927783609887424776285450089 (0xA76A1E6999CB49ED87B9D97662A3EF69)
Полное имя : M:\3D-RuGroup\TheLastAirbender.2010.BD3DRip.720p.OU.x264.AC3.Rus.mkv
Формат : Matroska
Версия формата : Version 2
Размер файла : 6,20 Гбайт
Продолжительность : 1 ч. 43 м.
Общий поток : 8594 Кбит/сек
Дата кодирования : UTC 2011-12-04 09:10:00
Программа кодирования : mkvmerge v3.4.0 ('Rapunzel') сборка от May 15 2010 09:38:20
Библиотека кодирования : libebml v0.8.0 + libmatroska v0.9.0
Видео
Идентификатор : 1
Формат : AVC
Формат/Информация : Advanced Video Codec
Профиль формата : High@L4.0
Параметр CABAC формата : Да
Параметр ReFrames формата : 4 кадра
Идентификатор кодека : V_MPEG4/ISO/AVC
Продолжительность : 1 ч. 43 м.
Битрейт : 7783 Кбит/сек
Ширина : 1280 пикселей
Высота : 1088 пикселей
Соотношение сторон : 1,176
Частота кадров : 23,976 кадра/сек
Цветовое пространство : YUV
Субдискретизация насыщенности : 4:2:0
Битовая глубина : 8 бит
Тип развёртки : Прогрессивная
Бит/(Пиксели*Кадры) : 0.233
Размер потока : 5,61 Гбайт (91%)
Заголовок : Rip by itsamna (aka elephant, AnTo}{@)
Библиотека кодирования : x264 core 116 r2074 2641b9e
Настройки программы : cabac=1 / ref=4 / deblock=1:-3:-3 / analyse=0x3:0x133 / me=umh / subme=9 / psy=1 / psy_rd=1.00:0.15 / mixed_ref=1 / me_range=16 / chroma_me=1 / trellis=2 / 8x8dct=1 / cqm=0 / deadzone=21,11 / fast_pskip=0 / chroma_qp_offset=-3 / threads=3 / sliced_threads=0 / nr=0 / decimate=1 / interlaced=0 / bluray_compat=0 / constrained_intra=0 / bframes=6 / b_pyramid=2 / b_adapt=2 / b_bias=0 / direct=3 / weightb=1 / open_gop=0 / weightp=2 / keyint=250 / keyint_min=23 / scenecut=40 / intra_refresh=0 / rc_lookahead=30 / rc=crf / mbtree=1 / crf=18.0 / qcomp=0.70 / qpmin=10 / qpmax=69 / qpstep=4 / ip_ratio=1.40 / aq=1:0.70
Аудио
Идентификатор : 2
Формат : AC-3
Формат/Информация : Audio Coding 3
Расширение режима : CM (complete main)
Идентификатор кодека : A_AC3
Продолжительность : 1 ч. 43 м.
Вид битрейта : Постоянный
Битрейт : 640 Кбит/сек
Каналы : 6 каналов
Расположение каналов : Front: L C R, Side: L R, LFE
Частота : 48,0 КГц
Битовая глубина : 16 бит
Метод сжатия : С потерями
Размер потока : 472 Мбайт (7%)
Заголовок : DUB AC3 5.1 640 Kbps
Язык : Russian
Меню
00:00:00.000 : :CHAPTER01
00:11:45.371 : :CHAPTER02
00:18:47.793 : :CHAPTER03
00:26:34.635 : :CHAPTER04
00:38:04.991 : :CHAPTER05
00:51:10.985 : :CHAPTER06
00:59:56.968 : :CHAPTER07
01:09:05.725 : :CHAPTER08
01:18:46.096 : :CHAPTER09
01:28:10.494 : :CHAPTER10
01:35:03.197 : :CHAPTER11

Знаете ли вы, что...

  • Первоначально фильм носил название «Аватар: Последний маг воздуха» ( Avatar: the Last Airbender). Однако задолго до начала работы над проектом Джеймс Кэмерон уже выкупил права на использование слова «Аватар».
  • Ноа Рингер, исполнитель роли Аанга, получил главную роль к фильму, пройдя интернет-кастинг. Он отправил видео со своим исполнением Тэквандо на DVD и был утвержден.
  • Ввиду того, что Ноа Рингеру 12 лет, ему запрещено проводить на съемочной площадке круглые сутки, создатели фильма прибегнули к трюку, взяв еще одного мальчика с похожим телосложением, поэтому в некоторых кадрах стоящего спиной Аанга будет исполнять некий Эрик Джуэл.
  • Режиссер целенаправленно сделал некоторых героев эпопеи старше с целью увеличения целевой аудитории фильма.
  • По сценарию комета Созина будет лететь 3 года, как и приблизительный срок кинотрилогии, а не один год как в мультсериале.
  • Актриса Джессика Джейд Андрес была выбрана на роль Суюки, лидера Воинов Киоши. Сцены с ее участием были сняты, но финальную версию фильма не вошли.
  • Певец и актер Джесси МакКартни должен был сыграть принца Зуко, однако не смог состыковать съемки фильма с гастрольным графиком.
Остальные раздачи этого фильма (3)
Благодарности релизеру (2)

Торрент:

Статус:

Размер:

Зарегистрирован   [ 2011-12-06 19:49 ]

проверено

6.2 GB

 
 Мнение о фильме (7)





Не тратьте время .3D при просмотре не обнаружил .
ps Очки надевал.
 

Думаю это фэйк, надо поискать ещё Blu-Ray 3D.
Да фейк но от студии производителя, называется плохая 2Д-3Д конвертация, объем вроде есть и вроде его нет, такой небольшой барельеф с неправильными пропорциями что глубина лица и глубина горизонта одинаковые:) Из серии Битва титанов, Белка и Стрелка, Темный мир. Как всегда некоторым влом 3Д камерами или двумя обычными сдвоенными как в "Обители зла" снимать и надеяться сэкономить на переводе в 3Д из 2Д фильма, а для зрителей это кидалово на 3Д. Все кто смотрел в кинотеатре, жутко ругали 3Д, писали что там его нет, конвертация есть конвертация, псевдо 3Д с микроскопичным подобием объема, смысла в 3Д смотреть нет и очередная анти-медалька на подходе.
 

Жаль, если на телевизоре включить преобразование 2D - 3D, будет то-же самое с любым фильмом. Но если не считать, что стерео почти нет, то в целом картинка хорошая.
 

Первый раз смотрел его в кинотеатре, и всю дорогу ловил себя на мысли, что тщетно пытаюсь найти здесь объем...))
Не было его никогда тут, банальная конвертация, даже стыдно его было называть 3D.
 

Здесь нет никакого 3D, к сожалению. И это очевидно уже на скриншотах. Качать смысла нет.
 

Сам фильм просто шлак ,а 3D хуже некуда.
 

koki, полностью согласен!
Смотрел фильм в кино - это просто жуть какая-то, у нас весь зал плевался, мало кто остался до конца этого "произведения". Это худший фильм, который я видел, увы.
А теперь прикол! Это ТРИЛОГИЯ!!!
Уж не знаю, будет ли продолжение, но мне что-то не верится, что кто-то пойдет смотреть вторую серию этого шлака... скорее всего продолжения не будет.