Торренты   
 
 


Звёздные собаки: Белка и Стрелка [2010г, BDrip, med_bad, 1080p, Anamorph OverUnder]

Рейтинг 3D:
Пока никто не голосовал
Рейтинг фильма:
Пока никто не голосовал
 
Вы должны быть авторизированы,
чтобы ставить оценки


[bad]Звёздные собаки: Белка и Стрелка
Год выпуска: 2010
Страна: Россия (Центр Национального фильма)
Жанр: Мультфильм, Приключения, Комедия
Продолжительность: 01:28:25
Перевод: Не требуется
Язык: Русский
Режиссер: Святослав Ушаков, Инна Евланникова
Роли озвучивали:
Белка - Анна Большова
Стрелка - Елена Яковлева
Веня - Евгений Миронов
Казбек - Сергей Гармаш
Мопс - Александр Баширов
Пушок - Руслан Кулешов
Кот-психиатр - Сергей Юшкевич
Профессор - Николай Сморчков
Кот / Медведь - Всеволод Кузнецов
Болонка / Обезьяна - Жанна Никонова
Голос по рации/громкоговорителю/телевизору - Радик Мухаметзянов
Попугай/Пират - Владимир Довжик
Бульдожиха - Нина Шмелькова
Описание: Привычный ход вещей нарушен! Цирковая собака Белка больше не выйдет на манеж покорять сердца зрителей, а дворняжка Стрелка не будет ночевать в подворотнях и искать себе пропитание. Теперь они не просто собаки, а члены отряда космонавтов. И лишь самые достойные, самые выносливые отправятся покорять космическое пространство.--Проверено на встроенном плейере ТВ Samsung UE-C7000

Допы (в 2д) (отдельно, скачивать здесь)

Фильм о фильме (460 мб / 720х576)
Дорога в космос (394 мб / 720х576)
Слайд-шоу (146 мб / 1920х1080)

Знаете ли вы, что...

  • В мультфильме Пушок — сын собаки Белки, но на самом деле шесть щенков родились у реальной Стрелки, и один из них — девочка по имени Пушинка — был отправлен в подарок Каролин Кеннеди.
  • Герои смотрят фильм «Белое солнце пустыни», который действительно смотрят настоящие космонавты перед стартом. Однако этот фильм вышел на экраны спустя 10 лет после полёта собак — в 1970 году.
  • На 57-й минуте фильма в спальном расположении главных героев висит отрывной календарь, на котором видно девятнадцатое число красным цветом. Однако на самом деле 19 августа 1960 года — пятница.
  • В самом начале фильма, где посланник СССР пролетает над Европой, на карте мира видны объединённая Германия, Чехия и Словакия, а также государства бывшей Югославии.
  • Формат 3d: Anamorph OverUnder--Качество: BDrip
    Контейнер: MKV
    Формат 3D: Half OverUnder / Вертикальная анаморфная стереопара
    Видео: AVC / 1920х1080p / 23,976 fps / 7303 Kbps
    Аудио: Русский / AC3 / 48 KHz / 5.1 ch / 640 Kbps

    MediaInfo

    General
    UniqueID : 228048657068242562475132024420391492091 (0xAB9092E0C9E43A27B918A25B2AE899FB)
    Complete name : F:\Downloads\StarDogs.BelkaIStrelka(3D)2010.halfOU.AC3(ash61).mkv
    Format : Matroska
    File size : 5.01 GiB
    Duration : 1h 28mn
    Overall bit rate : 8 105 Kbps
    Movie name : Звёздные собаки: Белка и Стрелка-3D (ash61)
    Encoded date : UTC 2011-12-07 13:08:22
    Writing application : mkvmerge v3.4.0 ('Rapunzel') сборка от May 15 2010 09:38:20
    Writing library : libebml v0.8.0 + libmatroska v0.9.0
    Video
    ID : 1
    Format : AVC
    Format/Info : Advanced Video Codec
    Format profile : High@L4.1
    Format settings, CABAC : Yes
    Format settings, ReFrames : 4 frames
    Codec ID : V_MPEG4/ISO/AVC
    Duration : 1h 28mn
    Bit rate : 7 303 Kbps
    Width : 1 920 pixels
    Height : 1 080 pixels
    Display aspect ratio : 16:9
    Frame rate : 23.976 fps
    Color space : YUV
    Chroma subsampling : 4:2:0
    Bit depth : 8 bits
    Scan type : Progressive
    Bits/(Pixel*Frame) : 0.147
    Stream size : 4.51 GiB (90%)
    Title : BDrip by ash61
    Writing library : x264 core 113 r1884 7313bb5
    Encoding settings : cabac=1 / ref=4 / deblock=1:-3:-3 / analyse=0x3:0x113 / me=umh / subme=9 / psy=1 / psy_rd=1.00:0.15 / mixed_ref=1 / me_range=16 / chroma_me=1 / trellis=1 / 8x8dct=1 / cqm=0 / deadzone=21,11 / fast_pskip=1 / chroma_qp_offset=-3 / threads=3 / sliced_threads=0 / nr=0 / decimate=1 / interlaced=0 / constrained_intra=0 / bframes=6 / b_pyramid=2 / b_adapt=2 / b_bias=0 / direct=3 / weightb=1 / open_gop=0 / weightp=2 / keyint=250 / keyint_min=23 / scenecut=40 / intra_refresh=0 / rc_lookahead=60 / rc=crf / mbtree=1 / crf=16.0 / qcomp=0.70 / qpmin=0 / qpmax=69 / qpstep=4 / ip_ratio=1.40 / aq=1:0.70
    Audio
    ID : 2
    Format : AC-3
    Format/Info : Audio Coding 3
    Mode extension : CM (complete main)
    Codec ID : A_AC3
    Duration : 1h 28mn
    Bit rate mode : Constant
    Bit rate : 640 Kbps
    Channel(s) : 6 channels
    Channel positions : Front: L C R, Side: L R, LFE
    Sampling rate : 48.0 KHz
    Bit depth : 16 bits
    Compression mode : Lossy
    Stream size : 405 MiB (8%)
    Language : Russian
    Menu
    00:00:00.000 : :01
    00:08:35.348 : :02
    00:15:24.715 : :03
    00:23:31.035 : :04
    00:29:31.269 : :05
    00:38:30.183 : :06
    00:47:56.540 : :07
    00:53:57.443 : :08
    01:00:16.530 : :09
    01:08:05.915 : :10
    01:15:25.730 : :11
    01:20:40.836 : :12

    Скриншоты

    Господа копипастеры, пожалуйста, уважайте труд рипперов -
    не "забывайте" указывать авторство в своих релизах!
    Благодарности релизеру (7)

    Торрент:

    Статус:

    Размер:

    Зарегистрирован   [ 2011-12-07 20:15 ]

    проверено

    5.01 GB