Торренты   
 
 


Кунг-фу Панда 2 3D / Kung Fu Panda 2 3D [2011 г., TS, 720p, OverUnder]

Кунг-фу Панда 2 3D / Kung Fu Panda 2 3D
Год выпуска: 2011
Страна: США
Жанр: мультфильм, боевик, комедия, приключения, семейный
Продолжительность: 01:20:51
Перевод: Профессиональный (многоголосый, закадровый) (звук с TS)
В ролях: Михаил Галустян, Ольга Зубкова, Дмитрий Поляновский, Диомид Виноградов, Пётр Иващенко
Описание: Панда По наконец-то исполнит свою мечту, станет Воином Дракона и со своими друзьями и мастерами кунг-фу — Неистовой Пятеркой — защитит Великую Долину от страшного злодея и его легиона…
Формат 3d: OverUnder
Видео: MPEG4 Video (H264) 1280x1440 25.00fps
Аудио: Русский / Dolby AC3 48000Hz stereo (звук с TS)
Внимание! присутствует небольшой рассинхрон в ракурсах (неустранимый) - качайте сэмпл и проверяйте перед скачкой самого мульта.
Звук полностью синхронизирован, без иноязычных вкраплений.

Сэмпл

MediaInfo

General
Format : Matroska
File size : 4.44 GiB
Duration : 1h 20mn
Overall bit rate : 7 853 Kbps
Encoded date : UTC 2011-09-19 10:10:28
Writing application : mkvmerge v4.4.0 ('Die Wiederkehr') сборка от Oct 31 2010 21:52:48
Writing library : libebml v1.0.0 + libmatroska v1.0.0
Video
ID : 1
Format : AVC
Format/Info : Advanced Video Codec
Format profile : High@L4.0
Format settings, CABAC : Yes
Format settings, ReFrames : 4 frames
Codec ID : V_MPEG4/ISO/AVC
Duration : 1h 20mn
Bit rate : 7 312 Kbps
Width : 1 280 pixels
Height : 1 440 pixels
Display aspect ratio : 0.889
Frame rate : 25.000 fps
Color space : YUV
Chroma subsampling : 4:2:0
Bit depth : 8 bits
Scan type : Progressive
Bits/(Pixel*Frame) : 0.159
Stream size : 4.13 GiB (93%)
Writing library : x264 core 115 r1995 c1e60b9
Encoding settings : cabac=1 / ref=4 / deblock=1:-2:-2 / analyse=0x3:0x113 / me=umh / subme=7 / psy=1 / psy_rd=1.00:0.15 / mixed_ref=1 / me_range=16 / chroma_me=1 / trellis=2 / 8x8dct=1 / cqm=0 / deadzone=21,11 / fast_pskip=1 / chroma_qp_offset=-3 / threads=6 / sliced_threads=0 / nr=0 / decimate=1 / interlaced=0 / bluray_compat=0 / constrained_intra=0 / bframes=6 / b_pyramid=0 / b_adapt=2 / b_bias=0 / direct=3 / weightb=1 / open_gop=0 / weightp=2 / keyint=250 / keyint_min=25 / scenecut=40 / intra_refresh=0 / rc_lookahead=40 / rc=crf / mbtree=1 / crf=18.0 / qcomp=0.60 / qpmin=10 / qpmax=69 / qpstep=4 / ip_ratio=1.40 / aq=1:1.00
Audio
ID : 2
Format : AC-3
Format/Info : Audio Coding 3
Mode extension : CM (complete main)
Codec ID : A_AC3
Duration : 1h 20mn
Bit rate mode : Constant
Bit rate : 384 Kbps
Channel(s) : 2 channels
Channel positions : Front: L R
Sampling rate : 48.0 KHz
Bit depth : 16 bits
Compression mode : Lossy
Delay relative to video : 6ms
Stream size : 222 MiB (5%)
Комментарии:





Это случайно, не это убожество? http://rutracker.org/forum/viewtopic.php?t=3764429
 

maxys
оно самое, лучше ето чем нечего
 

неделю бы подождали...
 

Нормальная версия уже в сети - уже качаю ))) !!! Скоро и рип эша появится - я думаю в эти выходные.
 

TheJoker, :D
Юзнет редко даёт положительные результаты скачивания образов! Я просто на всякий случай пытаюсь скачать, Юр! :)
 

Топик был перенесен из форума Мультфильмы в форум Архив

Zagruzin