Торренты   
 
 


Ночь страха 3D / Fright Night 3D (Крэйг Гиллеспи) [2011 г., Anamorph OverUnder]

Рейтинг 3D:
Пока никто не голосовал
Рейтинг фильма:
Пока никто не голосовал
 
Вы должны быть авторизированы,
чтобы ставить оценки


Ночь страха 3D / Fright Night 3D
Год выпуска: 2011
Страна: США, Индия
Жанр: ужасы, триллер, комедия
Продолжительность: 01:45:52
Перевод: Профессиональный (полное дублирование)
Режиссер: Крэйг Гиллеспи
В ролях: Колин Фаррелл, Антон Ельчин, Тони Коллетт, Дэвид Теннант, Имоджен Путс, Кристофер Минц-Плассе, Дэйв Франко, Рейд Юинг, Уилл Дентон, Сандра Вергара и др
Описание: Выпускник школы Чарли Брюстер находится на пике своей ученической карьеры: он популярен среди сверстников и встречается с самой очаровательной девушкой во всей школе. Он становится настолько крут, что начинает избегать своего когда-то лучшего друга Эда. Неприятности для Чарли начинаются, когда по соседству прописывается Джерри.
Доп. информация: Качество: BDRip 1080p
Видео: MPEG4 Video (H264) 1920x1080 23.98fps 9834 Kbps
Аудио: № 1 Russian Dolby AC3 48000Hz 6ch 640 Kbps| Blu-ray EUR |
Аудио: № 2 Ukrainian Dolby AC3 48000Hz 6ch 640 Kbps| Blu-ray EUR |
Аудио: № 3 English DTS 48000Hz 6ch 1510 Kbps
Субтитры: Russian,Romania,English,French,Spanish
Формат 3d: Anamorph OverUnder
Видео: MPEG4 Video (H264) 1920x1080 23.98fps 9834 Kbps

Скриншоты




Благодарности релизеру (0)

Торрент:

Статус:

Размер:

Зарегистрирован   [ 2011-12-08 21:36 ]

x закрыто

9.53 GB

 
Комментарии:





первая раздача. если что не так пишите я исправлю.
 

Судя по сринам постконверт?!
 

perik
чем рип сделан, если не секрет?
 

kbyecz
Первый скрин вводит в заблуждение, а так стерео честное.
 

Да!Показалось когда на мониторе смотрел! :)
 

perik
Медиаинфо бы еще для полного счастья.
 

МедиаИнфо этого релиза

General
UniqueID : 182391588172834152973118594025812022661 (0x893757959C8C8329A3F049B625165585)
Complete name : F:\Downloads\Noch.straha.3D.2011.D.BDRip.1080p.mkv.!ut
Format : Matroska
File size : 9.53 GiB
Duration : 1h 45mn
Overall bit rate : 12.9 Mbps
Movie name : Rip by - Seksi03 - X-TORRENTS
Encoded date : UTC 2011-12-08 03:21:41
Writing application : mkvmerge v5.1.0 ('And so it goes') built on Nov 28 2011 23:58:28
Writing library : libebml v1.2.3 + libmatroska v1.3.0
Video
ID : 1
Format : AVC
Format/Info : Advanced Video Codec
Format profile : High@L5.1
Format settings, CABAC : Yes
Format settings, ReFrames : 2 frames
Codec ID : V_MPEG4/ISO/AVC
Duration : 1h 45mn
Bit rate : 9 834 Kbps
Width : 1 920 pixels
Height : 1 080 pixels
Display aspect ratio : 16:9
Frame rate : 23.976 fps
Color space : YUV
Chroma subsampling : 4:2:0
Bit depth : 8 bits
Scan type : Progressive
Bits/(Pixel*Frame) : 0.198
Stream size : 7.28 GiB (76%)
Title : Rip by - Seksi03 - X-TORRENTS
Writing library : x264 core
Color primaries : BT.709-5, BT.1361, IEC 61966-2-4, SMPTE RP177
Transfer characteristics : BT.709-5, BT.1361
Matrix coefficients : BT.709-5, BT.1361, IEC 61966-2-4 709, SMPTE RP177
Audio #1
ID : 2
Format : AC-3
Format/Info : Audio Coding 3
Mode extension : CM (complete main)
Codec ID : A_AC3
Duration : 1h 45mn
Bit rate mode : Constant
Bit rate : 640 Kbps
Channel(s) : 6 channels
Channel positions : Front: L C R, Side: L R, LFE
Sampling rate : 48.0 KHz
Bit depth : 16 bits
Compression mode : Lossy
Stream size : 485 MiB (5%)
Language : Russian
Audio #2
ID : 3
Format : AC-3
Format/Info : Audio Coding 3
Mode extension : CM (complete main)
Codec ID : A_AC3
Duration : 1h 45mn
Bit rate mode : Constant
Bit rate : 640 Kbps
Channel(s) : 6 channels
Channel positions : Front: L C R, Side: L R, LFE
Sampling rate : 48.0 KHz
Bit depth : 16 bits
Compression mode : Lossy
Stream size : 485 MiB (5%)
Language : Ukrainian
Audio #3
ID : 4
Format : DTS
Format/Info : Digital Theater Systems
Codec ID : A_DTS
Duration : 1h 45mn
Bit rate mode : Constant
Bit rate : 1 510 Kbps
Channel(s) : 6 channels
Channel positions : Front: L C R, Side: L R, LFE
Sampling rate : 48.0 KHz
Bit depth : 24 bits
Compression mode : Lossy
Stream size : 1.12 GiB (12%)
Language : English
Text #1
ID : 5
Format : UTF-8
Codec ID : S_TEXT/UTF8
Codec ID/Info : UTF-8 Plain Text
Language : Russian
Text #2
ID : 6
Format : UTF-8
Codec ID : S_TEXT/UTF8
Codec ID/Info : UTF-8 Plain Text
Language : rom
Text #3
ID : 7
Format : UTF-8
Codec ID : S_TEXT/UTF8
Codec ID/Info : UTF-8 Plain Text
Language : English
Text #4
ID : 8
Format : UTF-8
Codec ID : S_TEXT/UTF8
Codec ID/Info : UTF-8 Plain Text
Language : French
Text #5
ID : 9
Format : UTF-8
Codec ID : S_TEXT/UTF8
Codec ID/Info : UTF-8 Plain Text
Language : Spanish
Menu
00:00:00.000 : en:(01)00:00:00:000
00:03:18.823 : en:(02)00:03:18:823
00:08:09.530 : en:(03)00:08:09:530
00:13:27.681 : en:(04)00:13:27:681
00:18:02.790 : en:(05)00:18:02:790
00:22:20.130 : en:(06)00:22:20:130
00:29:50.789 : en:(07)00:29:50:789
00:33:50.862 : en:(08)00:33:50:862
00:40:25.756 : en:(09)00:40:25:756
00:45:05.202 : en:(10)00:45:05:202
00:52:02.786 : en:(11)00:52:02:786
00:58:06.357 : en:(12)00:58:06:357
01:04:17.645 : en:(13)01:04:17:645
01:09:29.623 : en:(14)01:09:29:623
01:16:26.331 : en:(15)01:16:26:331
01:19:17.669 : en:(16)01:19:17:669
01:24:27.228 : en:(17)01:24:27:228
01:30:26.796 : en:(18)01:30:26:796
01:36:37.333 : en:(19)01:36:37:333
01:38:21.395 : en:(20)01:38:21:395
01:45:58.185 : en:(21)01:45:58:185
 

Судя по сринам постконверт?!
Нет, фильм снят на 3D камеры с использованием конверта на CG сцены.
 

Я так понял что с таким Format profile : High@L5.1, на LG не пойдёт?
 

Ну наконец хоть что-то новое!
 

Я так понял что с таким Format profile : High@L5.1, на LG не пойдёт?
на LG пойдёт!
 

а мне показалось что рип знакомый ))) где-то видел его уже )))))
 

med2012
Я уже оправдался!Показалось просто когда на мониторе смотрел скрины!Включил проектор и все сразу встало на свои места!!! :))) Релизеру большое спасибо за раздачу!!! ;)
 

Поглощено - http://torrents3d.ru/viewtopic.php?t=2214. Закрыто.
 

Топик был перенесен из форума Фильмы в форум Архив

KinoKRITIK