Торренты   
 
 

 

Ночь страха / Fright Night [2011г, BDrip, 1080p, Anamorph OverUnder]

Рейтинг 3D:
5 голосов
7.6
Рейтинг фильма:
5 голосов
7.0
 
Вы должны быть авторизированы,
чтобы ставить оценки


-Ночь страха / Fright Night Год выпуска: 2011
Страна: США, Индия (DreamWorks Pictures, Reliance Entertainment)
Жанр: Ужасы, Триллер, Комедия
Продолжительность: 01:45:57
Перевод: Профессиональный (полное дублирование)
Субтитры: Русские форсированные и полные, Английские
Режиссер: Крэйг Гиллеспи / Craig Gillespie-Роли исполняли (дублировали): Джерри - Колин Фаррелл (Александр Ноткин)
Чарли Брюстер - Антон Ельчин (Олег Тилькин)
Джейн Брюстер - Тони Коллетт (Наталья Ткаченко)
Питер Винсент - Дэвид Теннант (Александр Лушин)
Эми - Имоджен Путс (Рина Гришина)
Эд - Кристофер Минц-Плассе (Игорь Качанов)
Марк - Дэйв Франко
Бен - Рейд Юинг
Эдам - Уилл Дентон
Джинджер - Сандра Вергара (Наталия Тарыничева)
Дорис - Эмили Монтаг (Варвара Чабан)
...............-Описание: Выпускник школы Чарли Брюстер находится на пике своей ученической карьеры: он популярен среди сверстников и встречается с самой очаровательной девушкой во всей школе. Он становится настолько крут, что начинает избегать своего когда-то лучшего друга Эда. Неприятности для Чарли начинаются, когда по соседству прописывается Джерри.
На первый взгляд он кажется хорошим парнем, но все же что-то с ним не так, хотя никто этого не замечает, даже мать Чарли. После анализа странного поведения соседа Чарли приходит к ужасному, но, увы, единственному верному заключению: под лживой маской Джерри скрывается кровожадный вампир, который сделал его район своими охотничьими угодьями.
Не в силах убедить кого бы то ни было в своей правоте, Чарли обращается за помощью и советом к популярному иллюзионисту из Лас-Вегаса Питеру Винсенту, рассчитывая, что кудесник поможет ему избавиться от монстра.--Премьера: 14 августа 2011 (22 сентября 2011)
Бюджет: $30 000 000
Кассовые сборы: $41 002 607

Проверено на встроенном плейере ТВ Samsung UE-C7000--Формат 3d: Anamorph OverUnder
Качество: BDrip
Контейнер: MKV-Видео: AVC / 1920х1080p / 23,976 fps / 7751 Kbps
Аудио#1: Русский / AC3 / 48 KHz / 5.1 ch / 640 Kbps (Дубляж)
Аудио#2: Украинский / AC3 / 48 KHz / 5.1 ch / 640 Kbps (Дубляж)
Аудио#3: Английский / AC3 / 48 KHz / 5.1 ch / 640 Kbps
Субтитры: Внешние srt (русские форсированные включены по умолчанию)

MediaInfo

General
UniqueID : 178601500256701985890320237750303215722 (0x865D65D2A94C7A6BB355E62BEAC6506A)
Complete name : F:\Downloads\FrightNight(3D)2011.halfOU.AC3(ash61)torrents3d\FrightNight(3D)2011.halfOU.AC3(ash61).mkv
Format : Matroska
File size : 7.30 GiB
Duration : 1h 45mn
Overall bit rate : 9 867 Kbps
Movie name : Fright Night-3D (ash61)
Encoded date : UTC 2011-12-08 21:13:00
Writing application : mkvmerge v3.4.0 ('Rapunzel') сборка от May 15 2010 09:38:20
Writing library : libebml v0.8.0 + libmatroska v0.9.0
Video
ID : 1
Format : AVC
Format/Info : Advanced Video Codec
Format profile : High@L4.1
Format settings, CABAC : Yes
Format settings, ReFrames : 4 frames
Codec ID : V_MPEG4/ISO/AVC
Duration : 1h 45mn
Bit rate : 7 751 Kbps
Width : 1 920 pixels
Height : 1 080 pixels
Display aspect ratio : 16:9
Frame rate : 23.976 fps
Color space : YUV
Chroma subsampling : 4:2:0
Bit depth : 8 bits
Scan type : Progressive
Bits/(Pixel*Frame) : 0.156
Stream size : 5.74 GiB (79%)
Title : BDrip by ash61
Writing library : x264 core 113 r1884 7313bb5
Encoding settings : cabac=1 / ref=4 / deblock=1:-3:-3 / analyse=0x3:0x113 / me=umh / subme=9 / psy=1 / psy_rd=1.00:0.15 / mixed_ref=1 / me_range=16 / chroma_me=1 / trellis=1 / 8x8dct=1 / cqm=0 / deadzone=21,11 / fast_pskip=1 / chroma_qp_offset=-3 / threads=3 / sliced_threads=0 / nr=0 / decimate=1 / interlaced=0 / constrained_intra=0 / bframes=6 / b_pyramid=2 / b_adapt=2 / b_bias=0 / direct=3 / weightb=1 / open_gop=0 / weightp=2 / keyint=250 / keyint_min=23 / scenecut=40 / intra_refresh=0 / rc_lookahead=60 / rc=crf / mbtree=1 / crf=16.0 / qcomp=0.70 / qpmin=0 / qpmax=69 / qpstep=4 / ip_ratio=1.40 / aq=1:0.70
Audio #1
ID : 2
Format : AC-3
Format/Info : Audio Coding 3
Mode extension : CM (complete main)
Codec ID : A_AC3
Duration : 1h 45mn
Bit rate mode : Constant
Bit rate : 640 Kbps
Channel(s) : 6 channels
Channel positions : Front: L C R, Side: L R, LFE
Sampling rate : 48.0 KHz
Bit depth : 16 bits
Compression mode : Lossy
Stream size : 485 MiB (6%)
Language : Russian
Audio #2
ID : 3
Format : AC-3
Format/Info : Audio Coding 3
Mode extension : CM (complete main)
Codec ID : A_AC3
Duration : 1h 45mn
Bit rate mode : Constant
Bit rate : 640 Kbps
Channel(s) : 6 channels
Channel positions : Front: L C R, Side: L R, LFE
Sampling rate : 48.0 KHz
Bit depth : 16 bits
Compression mode : Lossy
Stream size : 485 MiB (6%)
Language : Ukrainian
Audio #3
ID : 4
Format : AC-3
Format/Info : Audio Coding 3
Mode extension : CM (complete main)
Codec ID : A_AC3
Duration : 1h 45mn
Bit rate mode : Constant
Bit rate : 640 Kbps
Channel(s) : 6 channels
Channel positions : Front: L C R, Side: L R, LFE
Sampling rate : 48.0 KHz
Bit depth : 16 bits
Compression mode : Lossy
Stream size : 485 MiB (6%)
Language : English
Menu
00:00:00.000 : :01
00:03:18.824 : :02
00:08:09.531 : :03
00:13:27.682 : :04
00:18:02.790 : :05
00:22:20.130 : :06
00:29:50.789 : :07
00:33:50.862 : :08
00:40:25.757 : :09
00:45:05.202 : :10
00:52:02.786 : :11
00:58:06.358 : :12
01:04:17.645 : :13
01:09:29.624 : :14
01:16:26.332 : :15
01:19:17.670 : :16
01:24:27.229 : :17
01:30:26.796 : :18
01:36:37.333 : :19
01:38:21.395 : :20

Скриншоты

Благодарности релизеру (9)

Торрент:

Статус:

Размер:

Зарегистрирован   [ 2011-12-09 12:29 ]

проверено

7.3 GB