Торренты   
 
 

 

Кунг-фу Панда в 3Д / Kung Fu Panda 3D (М. Осборн, Д. Стивенон) [2008 г., BDrip, 1080p, Anamorph OverUnder]

Рейтинг 3D:
1 голосов
9.0
Рейтинг фильма:
1 голосов
9.0
 
Вы должны быть авторизированы,
чтобы ставить оценки



Название: Кунг-фу Панда 3Д / Kung Fu Panda 3D
Год выпуска: 2008
Страна: США
Жанр: мультфильм, боевик, комедия, приключения, семейный
Студии: DreamWorks Animation, PDI
Продолжительность: 01:31:59
Перевод: Профессиональный (полное дублирование)
Субтитры: нет-Режиссер:
Марк Осборн / Mark Osborne, Джон Стивенсон / John Stevenson
Сценарий:
Джонатан Айбел / Jonathan Aibel, Гленн Бергер / Glenn Berger, Джо Пискателла / Joe Piscatella, Этан Райфф / Ethan Reiff, Сайрус Ворис / Cyrus Voris
Продюсер:
Мелисса Кобб / Melissa Cobb, Джонатан Айбел / Jonathan Aibel, Гленн Бергер / Glenn Berger, Билл Дамашке / Bill Damaschke, Лорни Орлинз / Lorne Orleans
Оператор:
Йонг Дук Джун / Yong Duk Jhun
Композитор:
Джон Пауэлл / John Powell, Ханс Циммер / Hans Zimmer
Роли озвучивали:
Джек Блэк (Po), Дастин Хоффман (Shifu), Анджелина Джоли (Tigress), Иэн МакШейн (Tai Lung), Джеки Чан (Monkey), Сет Роген (Mantis), Люси Лью (Viper), Дэвид Кросс (Crane), Рэндолл Дак Ким (Oogway), Джеймс Хонг (Mr. Ping), Дэн Фоглер (Zeng), Майкл Кларк Дункан (Commander Vachir)
Роли дублировали:
Михаил Галустян (Po), Александр Хотченков (Shifu), Алиса Гребенщикова (Tigress), Владимир Антоник (Tai Lung), Илья Лагутенко (Monkey), Олег Куценко (Mantis), Анна Семенович (Viper), Александр Гаврилин (Crane), Борис Быстров (Oogway), Олег Форостенко (Mr. Ping), Илья Бледный (Zeng), Владимир Зайцев (Commander Vachir)-Описание:
Спасение Долины Мира и всех ее обитателей от непобедимого и безжалостного мастера Тай Лунга должно лечь на плечи Воина Дракона, Избранного среди лучших из лучших, коим становится… неуклюжий, ленивый и вечно голодный панда По.
Ему предстоит долгий и трудный путь к вершинам мастерства кунг-фу бок о бок с легендарными воинами: Тигрой, Обезьяной, Богомолом, Гадюкой и Журавлем. По постигнет тайну древнего Свитка и станет Воином Дракона только в том случае, если сможет поверить в себя…- Качество: BDrip
Контейнер: MKV
Формат 3D: Anamorph OverUnder / Вертикальная анаморфная стереопара
Видео кодек: x264
Аудио кодек: AC3
Видео: x264, 1920x1080, 23.976 кадр/сек, 7293 Кбит/сек
Аудио 1: русский; AC3, 6 каналов, 640 Кбит/сек, 48,0 КГц
Аудио 2: украинский; AC3, 6 каналов, 640 Кбит/сек, 48,0 КГц (отдельно на Narod.Ru)
Аудио 3: английский; AC3, 6 каналов, 640 Кбит/сек, 48,0 КГц (отдельно на Narod.Ru)
Аудио 4: французский; AC3, 6 каналов, 640 Кбит/сек, 48,0 КГц (отдельно на Narod.Ru)

СКРИНШОТЫ

MI


Общее
Уникальный идентификатор : 206199018730437486958931303991542665149 (0x9B207C89245C81E3A2AA3F6CBAC5CFBD)
Полное имя : M:\3D-RuGroup\KungFuPanda.3D.2008.BD3DRip.Half.OU.x264.AC3.3D-RuGroup.mkv
Формат : Matroska
Версия формата : Version 2
Размер файла : 5,20 Гбайт
Продолжительность : 1 ч. 31 м.
Общий поток : 8094 Кбит/сек
Название фильма : KungFuPanda.3D.2008.BD3DRip.Half.OU.x264.AC3.3D-RuGroup
Дата кодирования : UTC 2011-12-09 13:50:58
Программа кодирования : mkvmerge v3.4.0 ('Rapunzel') сборка от May 15 2010 09:38:20
Библиотека кодирования : libebml v0.8.0 + libmatroska v0.9.0
Видео
Идентификатор : 1
Формат : AVC
Формат/Информация : Advanced Video Codec
Профиль формата : High@L4.0
Параметр CABAC формата : Да
Параметр ReFrames формата : 4 кадра
Идентификатор кодека : V_MPEG4/ISO/AVC
Продолжительность : 1 ч. 31 м.
Битрейт : 7293 Кбит/сек
Ширина : 1920 пикселей
Высота : 1080 пикселей
Соотношение сторон : 16:9
Частота кадров : 23,976 кадра/сек
Цветовое пространство : YUV
Субдискретизация насыщенности : 4:2:0
Битовая глубина : 8 бит
Тип развёртки : Прогрессивная
Бит/(Пиксели*Кадры) : 0.147
Размер потока : 4,69 Гбайт (90%)
Заголовок : Release by 3D-RuGroup
Библиотека кодирования : x264 core 116 r2074 2641b9e
Настройки программы : cabac=1 / ref=4 / deblock=1:-3:-3 / analyse=0x3:0x133 / me=umh / subme=9 / psy=1 / psy_rd=1.00:0.10 / mixed_ref=1 / me_range=16 / chroma_me=1 / trellis=2 / 8x8dct=1 / cqm=0 / deadzone=21,11 / fast_pskip=0 / chroma_qp_offset=-3 / threads=3 / sliced_threads=0 / nr=0 / decimate=1 / interlaced=0 / bluray_compat=0 / constrained_intra=0 / bframes=6 / b_pyramid=2 / b_adapt=2 / b_bias=0 / direct=3 / weightb=1 / open_gop=0 / weightp=2 / keyint=250 / keyint_min=23 / scenecut=40 / intra_refresh=0 / rc_lookahead=40 / rc=crf / mbtree=1 / crf=16.5 / qcomp=0.70 / qpmin=10 / qpmax=69 / qpstep=4 / ip_ratio=1.40 / aq=1:0.70
Язык : English
Аудио
Идентификатор : 2
Формат : AC-3
Формат/Информация : Audio Coding 3
Расширение режима : CM (complete main)
Идентификатор кодека : A_AC3
Продолжительность : 1 ч. 31 м.
Вид битрейта : Постоянный
Битрейт : 640 Кбит/сек
Каналы : 6 каналов
Расположение каналов : Front: L C R, Side: L R, LFE
Частота : 48,0 КГц
Битовая глубина : 16 бит
Метод сжатия : С потерями
Размер потока : 421 Мбайт (8%)
Заголовок : Russian DUB (5.1 / 48 kHz / 640 kbps)
Язык : Russian
Меню
00:00:00.000 : :CHAPTER01
00:02:30.192 : :CHAPTER02
00:05:16.024 : :CHAPTER03
00:07:57.852 : :CHAPTER04
00:10:40.890 : :CHAPTER05
00:16:38.289 : :CHAPTER06
00:19:27.458 : :CHAPTER07
00:22:40.609 : :CHAPTER08
00:26:18.827 : :CHAPTER09
00:31:12.829 : :CHAPTER10
00:35:25.081 : :CHAPTER11
00:38:34.562 : :CHAPTER12
00:42:33.718 : :CHAPTER13
00:45:44.867 : :CHAPTER14
00:51:28.669 : :CHAPTER15
00:56:28.010 : :CHAPTER16
00:58:47.315 : :CHAPTER17
01:02:05.180 : :CHAPTER18
01:06:51.841 : :CHAPTER19
01:09:51.896 : :CHAPTER20
01:14:04.440 : :CHAPTER21
01:20:03.424 : :CHAPTER22
01:23:10.944 : :CHAPTER23

Знаете ли вы, что...

  • Имена основных героев выбраны из реальных слов китайского языка. Шифу означает «учитель», Тай Лунг — «великий дракон», Угвэй — «черепаха».
  • При побеге Тай Лунга из тюрьмы в него запускают 5 стрел, рядом с ним втыкаются 4 (5-ю он тут же «отсылает» обратно), но через несколько секунд рядом с ним воткнуты уже 5 стрел.
  • Михаил Галустян, озвучивший По в русской версии, во время работы над дубляжом попал в больницу с аппендицитом.
  • В китайской локализации фильма Мастера Журавля озвучивал Джейси Чан (сын Джеки Чана).
  • Когда По попадает в Нефритовый Зал, он видит броню Летающего Воина-Носорога, по стилистике напоминающего броню Железного Человека (те же цвета, такое же отверстие в груди).
Благодарности релизеру (12)

Торрент:

Статус:

Размер:

Зарегистрирован   [ 2011-12-09 18:39 ]

проверено

5.2 GB