Торренты   
 
 

 

Кунг-фу Панда 2 / Kung Fu Panda 2 [2011г, BDrip, 1080p, Anamorph OverUnder]

Рейтинг 3D:
44 голосов
8.7
Рейтинг фильма:
44 голосов
8.5
 
Вы должны быть авторизированы,
чтобы ставить оценки


Кунг-фу Панда 2Kung Fu Panda 2
Год выпуска: 2011
Страна: США (DreamWorks Animation SKG)
Жанр: Мультфильм, Боевик, Приключения, Комедия, Семейный
Продолжительность: 01:30:21
Перевод: Профессиональный (полное дублирование, лицензия)
Режиссер: Дженнифер Ю / Jennifer Yuh
Роли дублировали (Озвучивали):
По - Михаил Галустян (Jack Black)
Тигрица - Ольга Зубкова (Angelina Jolie)
Шифу - Александр Хотченков (Dustin Hoffman)
Шен - Василий Дахненко (Gary Oldman)
Обезьяна - Диомид Виноградов (Jackie Chan)
Мантис - Олег Куценко (Seth Rogen)
Вайпер - (Lucy Liu)
Крэйн - Александр Гаврилин (David Cross)
Мистер Пинг - Олег Форостенко (James Hong)
Мастер Окс - Пётр Иващенко (Dennis Haysbert)
Мастер Крок - Дмитрий Поляновский (Jean-Claude Van Damme)
................
Описание: Панда По наконец-то исполнит свою мечту, станет Воином Дракона и со своими друзьями и мастерами кунг-фу — Неистовой Пятеркой — защитит Великую Долину от страшного злодея и его легиона…--Проверено на встроенном плейере ТВ Samsung UE-C7000
--Формат 3d: Anamorph OverUnder
Качество: BDrip
Контейнер: MKV
Видео: AVC / 1920х1080p / 23,976 fps / 7656 Kbps
Аудио#1: Русский / AC3 / 48 KHz / 5.1 ch / 640 Kbps
Аудио#2: Украинский / AC3 / 48 KHz / 5.1 ch / 640 Kbps
Аудио#3: Английский / AC3 / 48 KHz / 5.1 ch / 640 Kbps
Субтитры: Отсутствуют

MediaInfo

General
UniqueID : 233980444316630959179322183851701917289 (0xB006FE91B8DC61329235DE742B5B5669)
Complete name : F:\Downloads\KungFuPanda2(3D)2011.halfOU.AC3(ash61).mkv
Format : Matroska
File size : 6.17 GiB
Duration : 1h 30mn
Overall bit rate : 9 770 Kbps
Movie name : Kung Fu Panda 2 - 3D (Ash61)
Encoded date : UTC 2011-12-23 00:00:48
Writing application : mkvmerge v3.4.0 ('Rapunzel') сборка от May 15 2010 09:38:20
Writing library : libebml v0.8.0 + libmatroska v0.9.0
Video
ID : 1
Format : AVC
Format/Info : Advanced Video Codec
Format profile : High@L4.1
Format settings, CABAC : Yes
Format settings, ReFrames : 4 frames
Codec ID : V_MPEG4/ISO/AVC
Duration : 1h 30mn
Bit rate : 7 656 Kbps
Width : 1 920 pixels
Height : 1 080 pixels
Display aspect ratio : 16:9
Frame rate : 23.976 fps
Color space : YUV
Chroma subsampling : 4:2:0
Bit depth : 8 bits
Scan type : Progressive
Bits/(Pixel*Frame) : 0.154
Stream size : 4.83 GiB (78%)
Title : BDrip by Ash61
Writing library : x264 core 113 r1884 7313bb5
Encoding settings : cabac=1 / ref=4 / deblock=1:-3:-3 / analyse=0x3:0x113 / me=umh / subme=9 / psy=1 / psy_rd=1.00:0.15 / mixed_ref=1 / me_range=16 / chroma_me=1 / trellis=2 / 8x8dct=1 / cqm=0 / deadzone=21,11 / fast_pskip=1 / chroma_qp_offset=-3 / threads=3 / sliced_threads=0 / nr=0 / decimate=1 / interlaced=0 / constrained_intra=0 / bframes=6 / b_pyramid=2 / b_adapt=2 / b_bias=0 / direct=3 / weightb=1 / open_gop=0 / weightp=2 / keyint=250 / keyint_min=23 / scenecut=40 / intra_refresh=0 / rc_lookahead=60 / rc=crf / mbtree=1 / crf=17.0 / qcomp=0.70 / qpmin=0 / qpmax=69 / qpstep=4 / ip_ratio=1.40 / aq=1:0.70
Audio #1
ID : 2
Format : AC-3
Format/Info : Audio Coding 3
Mode extension : CM (complete main)
Codec ID : A_AC3
Duration : 1h 30mn
Bit rate mode : Constant
Bit rate : 640 Kbps
Channel(s) : 6 channels
Channel positions : Front: L C R, Side: L R, LFE
Sampling rate : 48.0 KHz
Bit depth : 16 bits
Compression mode : Lossy
Stream size : 414 MiB (7%)
Language : Russian
Audio #2
ID : 3
Format : AC-3
Format/Info : Audio Coding 3
Mode extension : CM (complete main)
Codec ID : A_AC3
Duration : 1h 30mn
Bit rate mode : Constant
Bit rate : 640 Kbps
Channel(s) : 6 channels
Channel positions : Front: L C R, Side: L R, LFE
Sampling rate : 48.0 KHz
Bit depth : 16 bits
Compression mode : Lossy
Stream size : 414 MiB (7%)
Language : Ukrainian
Audio #3
ID : 4
Format : AC-3
Format/Info : Audio Coding 3
Mode extension : CM (complete main)
Codec ID : A_AC3
Duration : 1h 30mn
Bit rate mode : Constant
Bit rate : 640 Kbps
Channel(s) : 6 channels
Channel positions : Front: L C R, Side: L R, LFE
Sampling rate : 48.0 KHz
Bit depth : 16 bits
Compression mode : Lossy
Stream size : 414 MiB (7%)
Language : English
Menu
00:00:00.000 : :01
00:03:53.275 : :02
00:10:34.342 : :03
00:16:08.426 : :04
00:21:14.732 : :05
00:29:55.627 : :06
00:36:52.877 : :07
00:41:13.179 : :08
00:49:43.814 : :09
00:54:05.826 : :10
00:58:53.780 : :11
01:05:08.196 : :12
01:11:42.798 : :13
01:15:30.901 : :14
01:21:14.787 : :15

Скриншоты

Господа копипастеры, пожалуйста, уважайте труд рипперов -
не "забывайте" указывать авторство в своих релизах!
--23.12.2011 - Релиз обновлён - рус.дорога заменена на лицензию и добавлена украинская
Остальные раздачи этого фильма (5)
Благодарности релизеру (15)

Торрент:

Статус:

Размер:

Зарегистрирован   [ 2011-12-23 04:47 ]

проверено

6.17 GB