Торренты   
 
 


Кунг-фу Панда 3Д / Kung Fu Panda 3D (Марк Осборн / Mark Osborne, Джон Стивенсон / John Stevenson) [2008 г., SideBySide, Bdrip, 60fps, 720p]

Рейтинг 3D:
Пока никто не голосовал
Рейтинг фильма:
Пока никто не голосовал
 
Вы должны быть авторизированы,
чтобы ставить оценки


Кунг-фу Панда 3Д / Kung Fu Panda 3D
Год выпуска: 2008
Страна: США
Жанр: мультфильм, боевик, комедия, приключения, семейный
Продолжительность: 01:31:59
Перевод: Профессиональный (полное дублирование)
Режиссер: Марк Осборн / Mark Osborne, Джон Стивенсон / John Stevenson
В ролях: Джек Блэк (Po), Дастин Хоффман (Shifu), Анджелина Джоли (Tigress), Иэн МакШейн (Tai Lung), Джеки Чан (Monkey), Сет Роген (Mantis), Люси Лью (Viper), Дэвид Кросс (Crane), Рэндолл Дак Ким (Oogway), Джеймс Хонг (Mr. Ping), Дэн Фоглер (Zeng), Майкл Кларк Дункан (Commander Vachir)
Описание: Спасение Долины Мира и всех ее обитателей от непобедимого и безжалостного мастера Тай Лунга должно лечь на плечи Воина Дракона, Избранного среди лучших из лучших, коим становится… неуклюжий, ленивый и вечно голодный панда По.
Ему предстоит долгий и трудный путь к вершинам мастерства кунг-фу бок о бок с легендарными воинами: Тигрой, Обезьяной, Богомолом, Гадюкой и Журавлем. По постигнет тайну древнего Свитка и станет Воином Дракона только в том случае, если сможет поверить в себя…
Доп. информация: Уплавлено до 60 fps, сильные настройки компрессии.
Формат 3d: SideBySide
Порядок ракурсов: Параллельная пара

Скриншоты

МИ

General
Unique ID : 191897854885056421164380706752923172790 (0x905E2EB83BC8FC0F9BEDD9396CC3FFB6)
Complete name : D:\3D\Rips 60 fps\KungfuPanda3dSBS.60fps.720p.AC3rus.mkv
Format : Matroska
Format version : Version 2
File size : 8.11 GiB
Duration : 1h 31mn
Overall bit rate : 12.6 Mbps
Encoded date : UTC 2011-12-11 11:40:57
Writing application : mkvmerge v5.0.1 ('Es ist Sommer') built on Oct 9 2011 11:55:43
Writing library : libebml v1.2.2 + libmatroska v1.3.0
Video
ID : 1
Format : AVC
Format/Info : Advanced Video Codec
Format profile : High@L5.0
Format settings, CABAC : Yes
Format settings, ReFrames : 15 frames
Format settings, GOP : M=4, N=60
Muxing mode : Header stripping
Codec ID : V_MPEG4/ISO/AVC
Duration : 1h 31mn
Bit rate : 11.7 Mbps
Width : 2 560 pixels
Height : 720 pixels
Display aspect ratio : 3.556
Frame rate : 59.940 fps
Color space : YUV
Chroma subsampling : 4:2:0
Bit depth : 8 bits
Scan type : Progressive
Bits/(Pixel*Frame) : 0.106
Stream size : 7.54 GiB (93%)
Writing library : x264 core 120 r2119 0637cd6
Encoding settings : cabac=1 / ref=15 / deblock=1:-3:-3 / analyse=0x3:0x113 / me=umh / subme=9 / psy=1 / psy_rd=1.00:0.00 / mixed_ref=1 / me_range=16 / chroma_me=1 / trellis=2 / 8x8dct=1 / cqm=0 / deadzone=21,11 / fast_pskip=1 / chroma_qp_offset=-2 / threads=6 / sliced_threads=0 / nr=0 / decimate=1 / interlaced=0 / bluray_compat=0 / constrained_intra=0 / bframes=9 / b_pyramid=2 / b_adapt=2 / b_bias=0 / direct=3 / weightb=1 / open_gop=0 / weightp=2 / keyint=250 / keyint_min=25 / scenecut=40 / intra_refresh=0 / rc_lookahead=60 / rc=crf / mbtree=1 / crf=15.0 / qcomp=0.70 / qpmin=0 / qpmax=69 / qpstep=4 / ip_ratio=1.40 / aq=1:1.00
Audio
ID : 2
Format : AC-3
Format/Info : Audio Coding 3
Mode extension : CM (complete main)
Muxing mode : Header stripping
Codec ID : A_AC3
Duration : 1h 31mn
Bit rate mode : Constant
Bit rate : 640 Kbps
Channel(s) : 6 channels
Channel positions : Front: L C R, Side: L R, LFE
Sampling rate : 48.0 KHz
Bit depth : 16 bits
Compression mode : Lossy
Stream size : 421 MiB (5%)
Благодарности релизеру (0)

Торрент:

Статус:

Размер:

Зарегистрирован   [ 2011-12-11 16:01 ]

проверено

8.11 GB