Торренты   
 
 

 

Ужасный Генри / Horrid Henry: The Movie [2011г, BDrip, 1080p, Anamorph OverUnder]

Рейтинг 3D:
3 голосов
7.0
Рейтинг фильма:
3 голосов
5.7
 
Вы должны быть авторизированы,
чтобы ставить оценки


Ужасный ГенриHorrid Henry: The Movie
Год выпуска: 2011
Страна: Великобритания (Vertigo Films, Novel Entertainment)
Жанр: Комедия, Семейный
Продолжительность: 01:32:41
Перевод: Профессиональный (полное дублирование)
Режиссер: Ник Мур / Nick Moore
В ролях: Тео Стивенсон, Хелена Барлоу, Анжелика Хьюстон, Ребекка Фронт, Парминдер К. Награ, Дэвид Шнайдер, Мэтью Хорн, Сиобэн Хэйес, Ричард Э. Грант, Кимберли Уолш, Ричард МакКорт, Доминик Вуд, Ноэль Филдинг
Описание: Сорванец Генри — главный хулиган в школе. Его боятся одноклассники и родители. Но когда коварный злодей Вик фон Морщини решает захватить школу, где учится проказник, оказывается, что только Генри может противостоять коварному злоумышленнику.
Доп. информация: Прежде чем качать, советую почитать отзывы на Кинопоиске (http://www.kinopoisk.ru/level/1/film/551930/) или ещё где, а также обратите внимание на рейтинги (парой строк ниже)
ИМХО: фильм для учеников средних классов, причём не наших.-- Проверено на встроенном плейере ТВ Samsung UE-C7000 --Формат 3d: Anamorph OverUnder
Качество: BDrip
Контейнер: MKV
Видео: AVC / 1920х1080p / 23,976 fps / 11.1 Mbps
Аудио#1: Русский / AC3 / 48 KHz / 5.1 ch / 448 Kbps
Аудио#2: Английский / AC3 / 48 KHz / 5.1 ch / 640 Kbps

MediaInfo

General
UniqueID : 247302221804295182029927278897003564987 (0xBA0CACE8E4299B0997D6BED712B10FBB)
Complete name : F:\Downloads\HorridHenry.TheMovie(3D)2011.halfOU.AC3(ash61).mkv
Format : Matroska
File size : 8.02 GiB
Duration : 1h 32mn
Overall bit rate : 12.4 Mbps
Movie name : Horrid Henry: The Movie - 3D (Ash61)
Encoded date : UTC 2011-12-11 23:12:35
Writing application : mkvmerge v3.4.0 ('Rapunzel') сборка от May 15 2010 09:38:20
Writing library : libebml v0.8.0 + libmatroska v0.9.0
Video
ID : 1
Format : AVC
Format/Info : Advanced Video Codec
Format profile : High@L4.1
Format settings, CABAC : Yes
Format settings, ReFrames : 4 frames
Codec ID : V_MPEG4/ISO/AVC
Duration : 1h 32mn
Bit rate : 11.1 Mbps
Width : 1 920 pixels
Height : 1 080 pixels
Display aspect ratio : 16:9
Frame rate : 23.976 fps
Color space : YUV
Chroma subsampling : 4:2:0
Bit depth : 8 bits
Scan type : Progressive
Bits/(Pixel*Frame) : 0.222
Stream size : 7.16 GiB (89%)
Title : BDrip by Ash61
Writing library : x264 core 119 r2106 07efeb4
Encoding settings : cabac=1 / ref=4 / deblock=1:-3:-3 / analyse=0x3:0x113 / me=umh / subme=9 / psy=1 / psy_rd=1.00:0.15 / mixed_ref=1 / me_range=16 / chroma_me=1 / trellis=2 / 8x8dct=1 / cqm=0 / deadzone=21,11 / fast_pskip=1 / chroma_qp_offset=-3 / threads=3 / sliced_threads=0 / nr=0 / decimate=1 / interlaced=0 / bluray_compat=0 / constrained_intra=0 / bframes=6 / b_pyramid=2 / b_adapt=2 / b_bias=0 / direct=3 / weightb=1 / open_gop=0 / weightp=2 / keyint=250 / keyint_min=23 / scenecut=40 / intra_refresh=0 / rc_lookahead=60 / rc=crf / mbtree=1 / crf=18.0 / qcomp=0.70 / qpmin=0 / qpmax=69 / qpstep=4 / ip_ratio=1.40 / aq=1:0.70
Audio #1
ID : 2
Format : AC-3
Format/Info : Audio Coding 3
Mode extension : CM (complete main)
Codec ID : A_AC3
Duration : 1h 32mn
Bit rate mode : Constant
Bit rate : 448 Kbps
Channel(s) : 6 channels
Channel positions : Front: L C R, Side: L R, LFE
Sampling rate : 48.0 KHz
Bit depth : 16 bits
Compression mode : Lossy
Stream size : 297 MiB (4%)
Title : Edit by Ash61
Language : Russian
Audio #2
ID : 3
Format : AC-3
Format/Info : Audio Coding 3
Mode extension : CM (complete main)
Codec ID : A_AC3
Duration : 1h 32mn
Bit rate mode : Constant
Bit rate : 640 Kbps
Channel(s) : 6 channels
Channel positions : Front: L C R, Side: L R, LFE
Sampling rate : 48.0 KHz
Bit depth : 16 bits
Compression mode : Lossy
Stream size : 424 MiB (5%)
Language : English
Menu
00:00:00.000 : :01
00:07:14.184 : :02
00:17:09.153 : :03
00:25:57.514 : :04
00:32:24.276 : :05
00:40:01.024 : :06
00:48:20.689 : :07
00:54:40.360 : :08
01:00:50.355 : :09
01:07:54.946 : :10
01:15:29.608 : :11
01:20:28.323 : :12

Скриншоты

Господа копипастеры, пожалуйста, уважайте труд рипперов -
не "забывайте" указывать авторство в своих релизах!
Благодарности релизеру (11)

Торрент:

Статус:

Размер:

Зарегистрирован   [ 2011-12-12 15:47 ]

проверено

8.02 GB

 
 Мнение о фильме (1)





ash61, с Наступающим Новым Годом, и огромное спасибо за труды!!!
Ну а сам фильм.... Правы и Вы, фильм для.......... Прав и Задорнов - они тупые.......
Хотя нет, скорее "отупели", раньше лучше снимали. Видимо, был "заказ" для американских детей, а какие дети, такие и фильмы. До "Один дома" как от "кола" до "пятерки" (была в наше время такая оценка в школе - кол :-)
И вот очень обиден парадокс современной 3Д киноиндустрии: все чаще с отстойным сюжетом идет хорошее 3Д, а где сюжет не совсем швах - 3Д может быть никаким. Или это у них принято, что в паре сценарист - режиссер работает кто-то один ?:-) В целом, конечно, можно снимать "3Д ради 3Д", и две последние Обители тому яркое подтверждение, но сюжет должен уж если не захватывать, то хотя бы не раздражать.....В общем, я фильм целиком "ниасилил". А 3Д то хорошее, не "Аватар", конечно, но все таки....