Торренты   
 
 

 

Теккен: Кровная месть / Tekken: Blood Vengeance (Ёичи Мори / Yoichi Mori) [2011 г., BDrip, 1080p, Anamorph OverUnder]

Рейтинг 3D:
6 голосов
8.5
Рейтинг фильма:
7 голосов
7.9
 
Вы должны быть авторизированы,
чтобы ставить оценки



Название: Теккен: Кровная месть 3Д / Tekken: Blood Vengeance 3D
Год выпуска: 2011
Страна: Япония
Студии: Digital Frontier, Namco Bandai Games
Жанр: мультфильм, фантастика, боевик
Продолжительность: 01:32:10
Перевод:
Любительский (многоголосый закадровый) 2 варианта
Любительский (двухголосый закадровый)
Любительский (одноголосый закадровый)
Субтитры: нет-Режиссер:
Ёичи Мори / Yoichi Mori
Сценарий:
Дай Сато / Dai Sato
Композитор:
Хитоси Сакимото / Hitoshi Sakimoto
Роли озвучивали:
Тиба Иссин (Jin Kazama), Юки Мацуока (Alisa Bosconovitch), Аманда Селин Миллер (дополнительные голоса), Мамору Мияно (Shin Kamiya), Рётаро Окиаю (Lee Chaolan), Маая Сакамото (Ling Xiaoyu), Масанори Шинохара (Kazuya Mishima), Угаки Хидэнари (Ganryu), Акено Ватанабе (Anna Williams)-Описание:
Лин Сяою, мастер китайских боевых искусств, получает задание от Анны Вильямс из корпорации G, находящейся под командованием Казуи Мисима. Задача Лин состоит в том, чтобы проникнуть в качестве шпиона в Киотскую международную школу и найти студента по имени Син Камия. Однако Син совершает самоубийство по неизвестной причине, и раcследование Сяою заходит в тупик. После этого Лин встречает таинственную девушку по имени Алиса, и они продолжают расследование вместе. Они узнают, что Син, вероятно, был кем-то похищен. Сяою хочет спасти Сина, для этого она начинает самостоятельное расследование, но она попадает в огромные владения корпорации Мисима Заибацу, которые скрывают тайные родственные заговоры с участием членов семьи Мисима — Дзина Казама, Казуи Мисима и вероятнее всего скончавшегося Хейхати Мисима.-
-Качество: BDrip
Контейнер: MKV
Формат 3D: Anamorph OverUnder / Вертикальная анаморфная стереопара
Видео кодек: x264
Аудио кодек: AC3
Видео: x264, 1920x1080, 23.976 кадр/сек, 7411 Кбит/сек
Аудио 1: русский; AC3, 6 каналов, 448 Кбит/сек, 48,0 КГц (MVO - AniFilm)
Аудио 2: русский; AC3, 6 каналов, 640 Кбит/сек, 48,0 КГц (MVO - AnimeSpace)
Аудио 3: русский; AC3, 6 каналов, 448 Кбит/сек, 48,0 КГц (DVO - Inspector Gadjet & Nika Lenina)
Аудио 4: русский; AC3, 6 каналов, 448 Кбит/сек, 48,0 КГц (VO - @PD)
Аудио 5: английский; AC3, 6 каналов, 640 Кбит/сек, 48,0 КГц (отдельно на Narod.Ru)
Аудио 6: японский; AC3, 6 каналов, 640 Кбит/сек, 48,0 КГц (отдельно на Narod.Ru)
Субтитры: русские (3 вида) + Форсированные русские + английские (srt + ass) (отдельно на Narod.Ru)

СКРИНШОТЫ

MI


Общее
Уникальный идентификатор : 195146639409228218144766650775903354475 (0x92CFE029D7DE354B8DD1C5EB24FF3E6B)
Полное имя : M:\3D-RuGroup\Tekken.BloodVengeance.3D.2011.BD3DRip.Half.OU.x264.AC3.3D-RuGroup.mkv
Формат : Matroska
Версия формата : Version 2
Размер файла : 6,17 Гбайт
Продолжительность : 1 ч. 32 м.
Общий поток : 9586 Кбит/сек
Название фильма : Tekken.BloodVengeance.3D.2011.BD3DRip.Half.OU.x264.AC3.3D-RuGroup
Дата кодирования : UTC 2011-12-12 14:05:43
Программа кодирования : mkvmerge v3.4.0 ('Rapunzel') сборка от May 15 2010 09:38:20
Библиотека кодирования : libebml v0.8.0 + libmatroska v0.9.0
Видео
Идентификатор : 1
Формат : AVC
Формат/Информация : Advanced Video Codec
Профиль формата : High@L4.0
Параметр CABAC формата : Да
Параметр ReFrames формата : 4 кадра
Идентификатор кодека : V_MPEG4/ISO/AVC
Продолжительность : 1 ч. 32 м.
Битрейт : 7411 Кбит/сек
Ширина : 1920 пикселей
Высота : 1080 пикселей
Соотношение сторон : 16:9
Частота кадров : 23,976 кадра/сек
Цветовое пространство : YUV
Субдискретизация насыщенности : 4:2:0
Битовая глубина : 8 бит
Тип развёртки : Прогрессивная
Бит/(Пиксели*Кадры) : 0.149
Размер потока : 4,77 Гбайт (77%)
Заголовок : Release by 3D-RuGroup
Библиотека кодирования : x264 core 116 r2074 2641b9e
Настройки программы : cabac=1 / ref=4 / deblock=1:-3:-3 / analyse=0x3:0x133 / me=umh / subme=9 / psy=1 / psy_rd=1.00:0.15 / mixed_ref=1 / me_range=32 / chroma_me=1 / trellis=2 / 8x8dct=1 / cqm=0 / deadzone=21,11 / fast_pskip=0 / chroma_qp_offset=-3 / threads=3 / sliced_threads=0 / nr=0 / decimate=1 / interlaced=0 / bluray_compat=0 / constrained_intra=0 / bframes=6 / b_pyramid=2 / b_adapt=2 / b_bias=0 / direct=3 / weightb=1 / open_gop=0 / weightp=2 / keyint=250 / keyint_min=23 / scenecut=40 / intra_refresh=0 / rc_lookahead=40 / rc=crf / mbtree=1 / crf=18.0 / qcomp=0.70 / qpmin=10 / qpmax=69 / qpstep=4 / ip_ratio=1.40 / aq=1:0.70
Язык : English
Аудио #1
Идентификатор : 2
Формат : AC-3
Формат/Информация : Audio Coding 3
Расширение режима : CM (complete main)
Идентификатор кодека : A_AC3
Продолжительность : 1 ч. 32 м.
Вид битрейта : Постоянный
Битрейт : 448 Кбит/сек
Каналы : 6 каналов
Расположение каналов : Front: L C R, Side: L R, LFE
Частота : 48,0 КГц
Битовая глубина : 16 бит
Метод сжатия : С потерями
Размер потока : 295 Мбайт (5%)
Заголовок : MVO - AniFilm (5.1 / 48 kHz / 448 kbps)
Язык : Russian
Аудио #2
Идентификатор : 3
Формат : AC-3
Формат/Информация : Audio Coding 3
Расширение режима : CM (complete main)
Идентификатор кодека : A_AC3
Продолжительность : 1 ч. 32 м.
Вид битрейта : Постоянный
Битрейт : 640 Кбит/сек
Каналы : 6 каналов
Расположение каналов : Front: L C R, Side: L R, LFE
Частота : 48,0 КГц
Битовая глубина : 16 бит
Метод сжатия : С потерями
Размер потока : 422 Мбайт (7%)
Заголовок : MVO - AnimeSpace (5.1 / 48 kHz / 640 kbps)
Язык : Russian
Аудио #3
Идентификатор : 4
Формат : AC-3
Формат/Информация : Audio Coding 3
Расширение режима : CM (complete main)
Идентификатор кодека : A_AC3
Продолжительность : 1 ч. 32 м.
Вид битрейта : Постоянный
Битрейт : 448 Кбит/сек
Каналы : 6 каналов
Расположение каналов : Front: L C R, Side: L R, LFE
Частота : 48,0 КГц
Битовая глубина : 16 бит
Метод сжатия : С потерями
Размер потока : 295 Мбайт (5%)
Заголовок : DVO - Inspector Gadjet & Nika Lenina (5.1 / 48 kHz / 448 kbps)
Язык : Russian
Аудио #4
Идентификатор : 5
Формат : AC-3
Формат/Информация : Audio Coding 3
Расширение режима : CM (complete main)
Идентификатор кодека : A_AC3
Продолжительность : 1 ч. 32 м.
Вид битрейта : Постоянный
Битрейт : 448 Кбит/сек
Каналы : 6 каналов
Расположение каналов : Front: L C R, Side: L R, LFE
Частота : 48,0 КГц
Битовая глубина : 16 бит
Метод сжатия : С потерями
Размер потока : 295 Мбайт (5%)
Заголовок : VO - @PD (5.1 / 48 kHz / 448 kbps)
Язык : Russian
Меню
00:00:00.000 : :CHAPTER01
00:06:49.409 : :CHAPTER02
00:11:10.211 : :CHAPTER03
00:14:33.623 : :CHAPTER04
00:18:59.722 : :CHAPTER05
00:24:56.870 : :CHAPTER06
00:30:58.273 : :CHAPTER07
00:39:34.914 : :CHAPTER08
00:42:30.381 : :CHAPTER09
00:47:24.467 : :CHAPTER10
00:50:18.182 : :CHAPTER11
00:53:20.614 : :CHAPTER12
00:56:37.853 : :CHAPTER13
01:03:23.758 : :CHAPTER14
01:08:49.125 : :CHAPTER15
01:16:02.016 : :CHAPTER16
01:24:44.705 : :CHAPTER17
01:28:39.314 : :CHAPTER18
Благодарности релизеру (18)

Торрент:

Статус:

Размер:

Зарегистрирован   [ 2011-12-12 18:27 ]

проверено

6.17 GB