Торренты   
 
 

 

Кармен / Carmen (Джулиан Напье / Julian Napier) [2011, музыка, опера, драма, BDrip 1080p, Anamorph OverUnder]

Рейтинг 3D:
2 голосов
9.5
Рейтинг фильма:
2 голосов
9.5
 
Вы должны быть авторизированы,
чтобы ставить оценки


КарменCarmen
Год выпуска: 2011
Страна: Великобритания (Real D, The Royal Opera House)
Жанр: Музыка, Опера, Драма
Продолжительность: 02:35:40
Перевод: Не требуется
Язык: Французский
Режиссер: Джулиан Напье / Julian Napier
В ролях: Christine Rice, Bryan Hymel, Aris Argiris, Maija Kovalevska, Dawid Kimberg, Nicolas Courjal, Elena Xanthoudakis, Paula Murrihy, Adrian Clarke, Harry Nicoll, Caroline Fellus, Anthony Debaeck...
Constantinos Carydis (дирижёр), The Royal Opera Chorus (хор), Tiffin Girls' School Choir (девочки), Trinity Boys Choir (мальчики).
Описание: "Страсть, ревность и измена в центре внимания Лондонского Королевского оперного театра. В этой яркой, динамичной постановке Франчески Замбелло "Кармен" Бизе снятой в 3Д Джулианом Напье, показаны шеренги солдат, толпы крестьян, цыган, тореадоры и даже осёл, лошадь и куры! Впечатляющие Real D, Королевский оперный театр, в высшей степени талантливые актёры, захватывающая драма Бизе - дали великолепный результат! Это поистине запоминающееся музыкальное событие!"--Проверено на встроенном плейере ТВ Samsung UE-C7000
--Формат 3d: Anamorph OverUnder
Качество: BDrip
Контейнер: MKV
Видео: AVC / 1920х1080p / 23,976 fps / 10.5 Mbps
Аудио: AC3 / 48 KHz / 5.1 ch / 640 Kbps

MediaInfo

General
UniqueID : 188739401966166576308293530923369647254 (0x8DFDE2F7C641C8D5AFEDB3A2345A4C96)
Complete name : F:\Downloads\Carmen(3D)2011.halfOU.AC3(ash61).mkv
Format : Matroska
File size : 12.4 GiB
Duration : 2h 35mn
Overall bit rate : 11.4 Mbps
Movie name : Carmen 3D (Ash61)
Encoded date : UTC 2011-12-13 09:45:50
Writing application : mkvmerge v3.4.0 ('Rapunzel') сборка от May 15 2010 09:38:20
Writing library : libebml v0.8.0 + libmatroska v0.9.0
Video
ID : 1
Format : AVC
Format/Info : Advanced Video Codec
Format profile : High@L4.1
Format settings, CABAC : Yes
Format settings, ReFrames : 4 frames
Codec ID : V_MPEG4/ISO/AVC
Duration : 2h 35mn
Bit rate : 10.5 Mbps
Width : 1 920 pixels
Height : 1 080 pixels
Display aspect ratio : 16:9
Frame rate : 23.976 fps
Color space : YUV
Chroma subsampling : 4:2:0
Bit depth : 8 bits
Scan type : Progressive
Bits/(Pixel*Frame) : 0.212
Stream size : 11.5 GiB (92%)
Title : BDrip by Ash61
Writing library : x264 core 119 r2106 07efeb4
Encoding settings : cabac=1 / ref=4 / deblock=1:-3:-3 / analyse=0x3:0x113 / me=umh / subme=9 / psy=1 / psy_rd=1.00:0.15 / mixed_ref=1 / me_range=16 / chroma_me=1 / trellis=1 / 8x8dct=1 / cqm=0 / deadzone=21,11 / fast_pskip=1 / chroma_qp_offset=-3 / threads=3 / sliced_threads=0 / nr=0 / decimate=1 / interlaced=0 / bluray_compat=0 / constrained_intra=0 / bframes=6 / b_pyramid=2 / b_adapt=2 / b_bias=0 / direct=3 / weightb=1 / open_gop=0 / weightp=2 / keyint=250 / keyint_min=23 / scenecut=40 / intra_refresh=0 / rc_lookahead=60 / rc=crf / mbtree=1 / crf=18.0 / qcomp=0.70 / qpmin=0 / qpmax=69 / qpstep=4 / ip_ratio=1.40 / aq=1:0.70
Audio
ID : 2
Format : AC-3
Format/Info : Audio Coding 3
Mode extension : CM (complete main)
Codec ID : A_AC3
Duration : 2h 35mn
Bit rate mode : Constant
Bit rate : 640 Kbps
Channel(s) : 6 channels
Channel positions : Front: L C R, Side: L R, LFE
Sampling rate : 48.0 KHz
Bit depth : 16 bits
Compression mode : Lossy
Stream size : 713 MiB (6%)
Language : English
Menu
00:00:00.000 : :01
00:13:08.371 : :02
00:17:06.525 : :03
00:29:37.109 : :04
00:40:56.245 : :05
00:47:18.502 : :06
00:55:18.899 : :07
01:01:36.985 : :08
01:09:26.371 : :09
01:15:31.277 : :10
01:31:43.331 : :11
01:36:59.188 : :12
01:49:28.771 : :13
01:52:40.420 : :14
01:58:59.841 : :15
02:05:21.681 : :16
02:11:18.037 : :17
02:15:30.497 : :18
02:19:02.417 : :19

Скриншоты

Господа копипастеры, пожалуйста, уважайте труд рипперов -
не "забывайте" указывать авторство в своих релизах!
Благодарности релизеру (4)

Торрент:

Статус:

Размер:

Зарегистрирован   [ 2011-12-13 17:12 ]

проверено

12.41 GB