Торренты   
 
 

 

Трансформеры 3: Тёмная сторона Луны 3D / Transformers: Dark of the Moon 3D [2011, SatRip, 1080p, Anamorph SideBySide]

Оценка 3D

1   12%  12%  [ 14 ]
2   5%  5%  [ 6 ]
3   18%  18%  [ 20 ]
4   22%  22%  [ 24 ]
5   41%  41%  [ 45 ]

Всего проголосовало : 109

Рейтинг 3D:
1 голосов
8.0
Рейтинг фильма:
1 голосов
10
 
Вы должны быть авторизированы,
чтобы ставить оценки


Трансформеры 3: Тёмная сторона Луны 3D / Transformers: Dark of the Moon 3D
Год выпуска: 2011
Страна: США
Студия: Paramount Pictures, Di Bonaventura Pictures, Hasbr
Жанр: фантастика, боевик, приключения
Продолжительность: 02:34:14
Перевод: Профессиональный (дублированный)
Русские субтитры: нет
Режиссер на русском: Майкл Бэй
Режиссер на английском: Michael Bay
В ролях: Шайа ЛаБаф, Джош Дюамель, Джон Туртурро, Тайриз Гибсон, Роузи Хантингтон-Уайтли, Патрик Демпси, Кевин Данн, Джули Уайт, Хьюго Уивинг, Кен Жонг, Джон Малкович
Описание: Для наших героев наступили печальные будни: Сэм потерял Микаэлу, правительство выпускает законодательный акт о выселении Автоботов с Земли, а пока Мегатрон скрывается после позорного поражения Фоллена, десептикон Шокуэйв, правитель Кибертрона, готовится нанести визит нашей планете с совсем не добрыми намерениями. Действие заключительной части трилогии на этот раз охватит не только Землю, но и Луну, темная сторона которой хранит не менее темные тайны....
Качество: SATrip
Контейнер: MKV
Формат 3D: SideBySide / Горизонтальная стереопара
Порядок ракурсов: левый ракурс первый
Видео кодек: h.264
Аудио кодек: AC3
Видео: CCV1 1920x1080 23.98fps
Аудио: Русский / Дублированный Dolby AC3 48000Hz 6ch

MediaInfo

General
Unique ID : 219263343565834005280738558970524700402 (0xA4F4957AFE7B8827AADB2039344D8EF2)
Complete name : E:\3D\Films\fullcolor\Transformers.Dark.Of.The.Moon.2011.3D.mkv
Format : Matroska
Format version : Version 2
File size : 9.45 GiB
Duration : 2h 34mn
Overall bit rate : 8 764 Kbps
Encoded date : UTC 2011-12-14 18:49:46
Writing application : mkvmerge v3.3.0 ('Language') built on Mar 24 2010 14:59:24
Writing library : libebml v0.8.0 + libmatroska v0.9.0
Video
ID : 1
Format : AVC
Format/Info : Advanced Video Codec
Format profile : High@L4.1
Format settings, CABAC : Yes
Format settings, ReFrames : 4 frames
Codec ID : V_MPEG4/ISO/AVC
Duration : 2h 34mn
Bit rate : 8 206 Kbps
Width : 1 920 pixels
Height : 1 080 pixels
Display aspect ratio : 16:9
Frame rate : 23.976 fps
Color space : YUV
Chroma subsampling : 4:2:0
Bit depth : 8 bits
Scan type : Progressive
Bits/(Pixel*Frame) : 0.165
Stream size : 8.85 GiB (94%)
Writing library : x264 core 120 r2120 0c7dab9
Encoding settings : cabac=1 / ref=4 / deblock=1:-3:-3 / analyse=0x3:0x113 / me=umh / subme=7 / psy=1 / psy_rd=1.00:0.15 / mixed_ref=1 / me_range=16 / chroma_me=1 / trellis=1 / 8x8dct=1 / cqm=0 / deadzone=21,11 / fast_pskip=1 / chroma_qp_offset=-3 / threads=18 / sliced_threads=0 / nr=0 / decimate=1 / interlaced=0 / bluray_compat=0 / constrained_intra=0 / bframes=3 / b_pyramid=2 / b_adapt=1 / b_bias=0 / direct=3 / weightb=1 / open_gop=0 / weightp=2 / keyint=250 / keyint_min=23 / scenecut=40 / intra_refresh=0 / rc_lookahead=40 / rc=crf / mbtree=1 / crf=18.0 / qcomp=0.60 / qpmin=10 / qpmax=69 / qpstep=4 / ip_ratio=1.40 / aq=1:1.00
Language : English
Audio
ID : 2
Format : AC-3
Format/Info : Audio Coding 3
Mode extension : CM (complete main)
Codec ID : A_AC3
Duration : 2h 34mn
Bit rate mode : Constant
Bit rate : 384 Kbps
Channel(s) : 6 channels
Channel positions : Front: L C R, Side: L R, LFE
Sampling rate : 48.0 KHz
Bit depth : 16 bits
Compression mode : Lossy
Delay relative to video : 16ms
Stream size : 424 MiB (4%)

Скриншоты


За рип спасибо 3D4ALL
Благодарности релизеру (5)

Торрент:

Статус:

Размер:

Зарегистрирован   [ 2011-12-14 23:11 ]

x закрыто

9.45 GB