Торренты   
 
 

 

Волшебная поездка в Африку / Magic Journey to Africa [2010, BDrip, half1080p, Anamorph OverUnder] L2

Рейтинг 3D:
15 голосов
7.7
Рейтинг фильма:
12 голосов
6.2
 
Вы должны быть авторизированы,
чтобы ставить оценки


Волшебная поездка в АфрикуMagic Journey to Africa
Год выпуска: 2010
Страна: Испания (Orbita Max, Apuntolapospo)
Жанр: Фэнтези, Приключения, Семейный
Продолжительность: 01:32:21
Перевод: Любительский (двухголосый закадровый)
Режиссер: Джорди Лломпарт / Jordi Llompart
В ролях: Eva Gerretsen, Raymond Mvula, Michael van Wyk, Leonor Watling, Veronica Blume, Adrià Collado
Описание: Девочка Яна, проникшись судьбой бездомного мальчика с волшебным именем Кобо, отправляется в путешествие по Африке, в поисках волшебной страны, о которой ей рассказал Кобо, вслед за ним. Делает это она с помощью феи-бабочки. В пути она находит много чудесных знаков в виде камешков, оставляемых Кобо, встречает говорящих животных, с которыми познает тайны животного мира, ей во всем помогает её плюшевая летающая лошадь, превращающаяся в настоящую. Просто невероятные пейзажи, виды пустыни, захватывающие панорамы, полеты… Встреча с племенем местных жителей, разговор с духом огня… Яна движется вперед в поисках чудесной страны и сердце её растет, она вдохновляет и помогает людям. Но самая главная мысль, что заложена в этом фильме — найдите свой путь и никогда с него не сходите! Продвигайтесь вперед всё время. И вы обязательно придёте к цели! Великолепная сказка, добрая и проникновенная. Нереальная и нежная. Найдите свой путь и никогда с него не сходите! Продвигайтесь вперед всё время. И вы обязательно придёте к цели!
Доп. информация: IMHO - фильм для детей дошкольного и младшего школьного возраста (полезный, познавательный).--Проверено на встроенном плейере ТВ Samsung UE-C7000
--Формат 3d: Anamorph OverUnder
Качество: BDrip
Контейнер: MKV
Видео: AVC / 1920х1080p / 23,976 fps / 19.8 Mbps
Аудио#1: Русский / AC3 / 48 KHz / 5.1 ch / 448 Kbps
Аудио#2: Английский / AC3 / 48 KHz / 5.1 ch / 640 Kbps

MediaInfo

General
UniqueID : 211720363046061556908733211707425694515 (0x9F47DBD3F0969A59BBE9B428CD742333)
Complete name : F:\Downloads\MagicJourneyToAfrica(3D)2010.halfOU.AC3(ash61).mkv
Format : Matroska
File size : 13.8 GiB
Duration : 1h 32mn
Overall bit rate : 21.3 Mbps
Movie name : Magic Journey to Africa - 3D (Ash61)
Encoded date : UTC 2011-12-14 11:47:08
Writing application : mkvmerge v3.4.0 ('Rapunzel') сборка от May 15 2010 09:38:20
Writing library : libebml v0.8.0 + libmatroska v0.9.0
Video
ID : 1
Format : AVC
Format/Info : Advanced Video Codec
Format profile : High@L4.1
Format settings, CABAC : Yes
Format settings, ReFrames : 4 frames
Codec ID : V_MPEG4/ISO/AVC
Duration : 1h 32mn
Bit rate : 19.8 Mbps
Width : 1 920 pixels
Height : 1 080 pixels
Display aspect ratio : 16:9
Frame rate : 23.976 fps
Color space : YUV
Chroma subsampling : 4:2:0
Bit depth : 8 bits
Scan type : Progressive
Bits/(Pixel*Frame) : 0.399
Stream size : 12.8 GiB (93%)
Title : BDrip by Ash61
Writing library : x264 core 119 r2106 07efeb4
Encoding settings : cabac=1 / ref=4 / deblock=1:-3:-3 / analyse=0x3:0x113 / me=umh / subme=9 / psy=1 / psy_rd=1.00:0.15 / mixed_ref=1 / me_range=16 / chroma_me=1 / trellis=1 / 8x8dct=1 / cqm=0 / deadzone=21,11 / fast_pskip=1 / chroma_qp_offset=-3 / threads=3 / sliced_threads=0 / nr=0 / decimate=1 / interlaced=0 / bluray_compat=0 / constrained_intra=0 / bframes=6 / b_pyramid=2 / b_adapt=2 / b_bias=0 / direct=3 / weightb=1 / open_gop=0 / weightp=2 / keyint=250 / keyint_min=23 / scenecut=40 / intra_refresh=0 / rc_lookahead=60 / rc=crf / mbtree=1 / crf=18.0 / qcomp=0.70 / qpmin=0 / qpmax=69 / qpstep=4 / ip_ratio=1.40 / aq=1:0.70
Audio #1
ID : 2
Format : AC-3
Format/Info : Audio Coding 3
Mode extension : CM (complete main)
Codec ID : A_AC3
Duration : 1h 32mn
Bit rate mode : Constant
Bit rate : 448 Kbps
Channel(s) : 6 channels
Channel positions : Front: L C R, Side: L R, LFE
Sampling rate : 48.0 KHz
Bit depth : 16 bits
Compression mode : Lossy
Stream size : 296 MiB (2%)
Title : Любительский DVO
Language : Russian
Audio #2
ID : 3
Format : AC-3
Format/Info : Audio Coding 3
Mode extension : CM (complete main)
Codec ID : A_AC3
Duration : 1h 32mn
Bit rate mode : Constant
Bit rate : 640 Kbps
Channel(s) : 6 channels
Channel positions : Front: L C R, Side: L R, LFE
Sampling rate : 48.0 KHz
Bit depth : 16 bits
Compression mode : Lossy
Stream size : 423 MiB (3%)
Language : English
Menu
00:00:00.000 : :01
00:11:24.517 : :02
00:17:30.549 : :03
00:23:01.839 : :04
00:38:22.926 : :05
00:45:20.760 : :06
00:50:50.798 : :07
00:55:40.003 : :08
01:03:19.754 : :09
01:08:08.793 : :10
01:18:45.220 : :11
01:27:36.543 : :12

Скриншоты

Господа копипастеры, пожалуйста, уважайте труд рипперов -
не "забывайте" указывать авторство в своих релизах!
Благодарности релизеру (25)

Торрент:

Статус:

Размер:

Зарегистрирован   [ 2011-12-16 00:48 ]

проверено

13.76 GB