Торренты   
 
 

 

Титаник 3Д, трейлер / Titanic 3d Trailer [2011 г., DCPrip, Anamorph OverUnder]

Рейтинг 3D:
2 голосов
8.5
Рейтинг фильма:
2 голосов
9.0
 
Вы должны быть авторизированы,
чтобы ставить оценки


Титаник 3Д трейлер / Titanic 3d Trailer
--Год выпуска: 2011
Страна: США
Жанр: драма, мелодрама, приключения, история, ...
Продолжительность: 00:02:05--Описание: Молодые влюбленные Джек и Роза находят друг друга в первом и последнем плавании «непотопляемого» Титаника. Они не могли знать, что шикарный лайнер столкнется с айсбергом в холодных водах Северной Атлантики, и их страстная любовь превратится в схватку со смертью…--Примечание: После просмотра этого трейлера появилось желание посмотреть вновь этот фильм, но уже в 3Д, т.е. СТЕРЕО в фильме сконвертировано на высоком уровне.--Формат 3d: Anamorph OverUnder (левый ракурс верхний)
Качество: DCPrip
Контейнер: mkv
Видео: AVC / 1920х1080 / 23.976 fps / 11.6 Mbps
Аудио: Русский / AC3 / 6 ch / 448 Kbps / 48 KHz

MediaInfo:

Код:
General
Unique ID                        : 204408060243893772532718134586758137875 (0x99C78F7703F83BFBA04137F71BF40813)
Complete name                    : L:\_3D\3D-Trailers\TITANIC.3d.Trailer.Half.OU.mkv
Format                           : Matroska
File size                        : 185 MiB
Duration                         : 2mn 5s
Overall bit rate                 : 12.3 Mbps
Encoded date                     : UTC 2011-12-16 18:34:15
Writing application              : mkvmerge v4.0.0 ('The Stars were mine') сборка от Jun  6 2010 16:18:42
Writing library                  : libebml v1.0.0 + libmatroska v1.0.0
Video
ID                               : 1
Format                           : AVC
Format/Info                      : Advanced Video Codec
Format profile                   : High@L4.1
Format settings, CABAC           : Yes
Format settings, ReFrames        : 4 frames
Codec ID                         : V_MPEG4/ISO/AVC
Duration                         : 2mn 5s
Bit rate                         : 11.6 Mbps
Width                            : 1 920 pixels
Height                           : 1 080 pixels
Display aspect ratio             : 16:9
Frame rate                       : 23.976 fps
Color space                      : YUV
Chroma subsampling               : 4:2:0
Bit depth                        : 8 bits
Scan type                        : Progressive
Bits/(Pixel*Frame)               : 0.234
Stream size                      : 174 MiB (94%)
Writing library                  : x264 core 116 r2074 2641b9e
Encoding settings                : cabac=1 / ref=4 / deblock=1:-3:-3 / analyse=0x3:0x113 / me=umh / subme=9 / psy=1 / psy_rd=1.00:0.15 / mixed_ref=1 / me_range=16 / chroma_me=1 / trellis=2 / 8x8dct=1 / cqm=0 / deadzone=21,11 / fast_pskip=1 / chroma_qp_offset=-3 / threads=6 / sliced_threads=0 / nr=0 / decimate=1 / interlaced=0 / bluray_compat=0 / constrained_intra=0 / bframes=6 / b_pyramid=2 / b_adapt=2 / b_bias=0 / direct=3 / weightb=1 / open_gop=0 / weightp=2 / keyint=250 / keyint_min=23 / scenecut=40 / intra_refresh=0 / rc_lookahead=40 / rc=crf / mbtree=1 / crf=18.0 / qcomp=0.60 / qpmin=10 / qpmax=61 / qpstep=4 / ip_ratio=1.40 / aq=1:1.00
Language                         : English
Audio
ID                               : 2
Format                           : AC-3
Format/Info                      : Audio Coding 3
Mode extension                   : CM (complete main)
Codec ID                         : A_AC3
Duration                         : 2mn 5s
Bit rate mode                    : Constant
Bit rate                         : 448 Kbps
Channel(s)                       : 6 channels
Channel positions                : Front: L C R, Side: L R, LFE
Sampling rate                    : 48.0 KHz
Bit depth                        : 16 bits
Compression mode                 : Lossy
Stream size                      : 6.71 MiB (4%)
Language                         : Russian

Скриншоты



Благодарности релизеру (1)

Торрент:

Статус:

Размер:

Зарегистрирован   [ 2011-12-16 23:07 ]

проверено

185 MB