Торренты   
 
 

 

История дельфина / Dolphin Tale [2011г, BDrip, 1080p, Anamorph OverUnder]

Рейтинг 3D:
18 голосов
8.2
Рейтинг фильма:
19 голосов
7.5
 
Вы должны быть авторизированы,
чтобы ставить оценки


История дельфинаDolphin Tale
Год выпуска: 2011
Страна: США (Warner Bros.Pictures, Alcon Entertainment)
Жанр: Драма, Семейный
Продолжительность: 01:52:39
Перевод: Профессиональный (дублированный)
Субтитры: Русские, Английские
Режиссер: Чарльз Мартин Смит / Charles Martin Smith
В ролях: Гарри Конник мл., Эшли Джадд, Натан Гэмбл, Крис Кристофферсон, Кози Цуельсдорфф, Морган Фриман, Остин Стоуэлл, Фрэнсис Стернхаген, Остин Хигсмит, Бетси Лэндин, Джулиана Харкви...
Роли озвучивали: Александр Рахленко, Иван Жарков, Вероника Саркисова
Описание: Пронзительная история дружбы между мальчиком и дельфином, который потерял свой хвост в ловушке для крабов.--Проверено на встроенном плейере ТВ Samsung UE-C7000 --Формат 3d: Anamorph OverUnder
Качество: BDrip
Контейнер: MKV
Видео: AVC / 1920х1080p / 23,976 fps / 12.0 Mbps
Аудио#1: Русский / AC3 / 48 KHz / 5.1 ch / 384 Kbps
Аудио#2: Английский / AC3 / 48 KHz / 5.1 ch / 640 Kbps
Субтитры: внешние srt

MediaInfo

General
UniqueID : 229785498248580471857043611993640407408 (0xACDF13C27B077670B976116487061170)
Complete name : F:\Downloads\DolphinTale(3D)2011.halfOU.AC3(ash61)\DolphinTale(3D)2011.halfOU.AC3(ash61).mkv
Format : Matroska
File size : 10.5 GiB
Duration : 1h 52mn
Overall bit rate : 13.3 Mbps
Movie name : Dolphin Tale 3D (Ash61)
Encoded date : UTC 2011-12-22 20:52:37
Writing application : mkvmerge v3.4.0 ('Rapunzel') сборка от May 15 2010 09:38:20
Writing library : libebml v0.8.0 + libmatroska v0.9.0
Video
ID : 1
Format : AVC
Format/Info : Advanced Video Codec
Format profile : High@L4.1
Format settings, CABAC : Yes
Format settings, ReFrames : 4 frames
Codec ID : V_MPEG4/ISO/AVC
Duration : 1h 52mn
Bit rate : 12.0 Mbps
Width : 1 920 pixels
Height : 1 080 pixels
Display aspect ratio : 16:9
Frame rate : 23.976 fps
Original frame rate : 25.000 fps
Color space : YUV
Chroma subsampling : 4:2:0
Bit depth : 8 bits
Scan type : Progressive
Bits/(Pixel*Frame) : 0.241
Stream size : 9.45 GiB (90%)
Title : BDrip by Ash61
Writing library : x264 core 119 r2106 07efeb4
Encoding settings : cabac=1 / ref=4 / deblock=1:-3:-3 / analyse=0x3:0x113 / me=umh / subme=9 / psy=1 / psy_rd=1.00:0.15 / mixed_ref=1 / me_range=16 / chroma_me=1 / trellis=2 / 8x8dct=1 / cqm=0 / deadzone=21,11 / fast_pskip=1 / chroma_qp_offset=-3 / threads=3 / sliced_threads=0 / nr=0 / decimate=1 / interlaced=0 / bluray_compat=0 / constrained_intra=0 / bframes=6 / b_pyramid=2 / b_adapt=2 / b_bias=0 / direct=3 / weightb=1 / open_gop=0 / weightp=2 / keyint=250 / keyint_min=25 / scenecut=40 / intra_refresh=0 / rc_lookahead=60 / rc=crf / mbtree=1 / crf=18.0 / qcomp=0.70 / qpmin=0 / qpmax=69 / qpstep=4 / ip_ratio=1.40 / aq=1:0.70
Audio #1
ID : 2
Format : AC-3
Format/Info : Audio Coding 3
Mode extension : CM (complete main)
Codec ID : A_AC3
Duration : 1h 52mn
Bit rate mode : Constant
Bit rate : 384 Kbps
Channel(s) : 6 channels
Channel positions : Front: L C R, Side: L R, LFE
Sampling rate : 48.0 KHz
Bit depth : 16 bits
Compression mode : Lossy
Stream size : 309 MiB (3%)
Title : Лицензия
Language : Russian
Audio #2
ID : 3
Format : AC-3
Format/Info : Audio Coding 3
Mode extension : CM (complete main)
Codec ID : A_AC3
Duration : 1h 52mn
Bit rate mode : Constant
Bit rate : 640 Kbps
Channel(s) : 6 channels
Channel positions : Front: L C R, Side: L R, LFE
Sampling rate : 48.0 KHz
Bit depth : 16 bits
Compression mode : Lossy
Stream size : 516 MiB (5%)
Language : English
Menu
00:00:00.000 : :01
00:09:14.304 : :02
00:19:32.797 : :03
00:27:58.677 : :04
00:39:20.692 : :05
00:47:27.094 : :06
00:58:13.949 : :07
01:07:11.444 : :08
01:19:00.945 : :09
01:29:13.640 : :10
01:39:39.140 : :11
01:45:18.938 : :12

Скриншоты

Господа копипастеры, пожалуйста, уважайте труд рипперов -
не "забывайте" указывать авторство в своих релизах!
23.12.2011 - Релиз обновлён - рус.дорога заменена на лицензию, добавлены субтитры
Благодарности релизеру (37)

Торрент:

Статус:

Размер:

Зарегистрирован   [ 2011-12-23 02:24 ]

проверено

10.46 GB

 
 Мнение о фильме (3)





Хороший, добрый фильм))) Мне очень понравился)) Спасибо))))))
 

a как 3Д? качать нет?
 

Замечательный фильм. Впечатляет. Трогательная история о судьбе дельфина