Торренты   
 
 

 

Kylie Minogue - Aphrodite Les Folies Tour [2011 г., 1080р, Anamorph OverUnder]

Рейтинг 3D:
18 голосов
8.1
Рейтинг фильма:
17 голосов
8.3
 
Вы должны быть авторизированы,
чтобы ставить оценки



Kylie Minogue - Aphrodite Les Folies Tour
Год выпуска: 2011
Страна: Великобритания
Жанр: Музыка
Продолжительность: 2:00:13
Перевод: Отсутствует
Описание: Снятый в течение двух ночей на "O2 Arena" в Лондоне - Это не просто концерт - это просто шикарное шоу!!! В концерте представлены не только новые песни, но и хорошо известные в совершенно новой аранжировке.
"ИМХО ash61" -
Впервые я увидел Кайли в конце 80-х - это была простенькая австралийская юная девушка! Каково же было моё удивление, когда я увидел её в районе 2000-го года - невозможно было узнать в ней ту простушку - это была зрелая красавица! И вот ей уже за сорок, а точёная фигурка как у двадцатилетней (что она и не стесняется показывать)! Это как раз тот случай, когда женщина становится только красивее и утончённее с годами! (ash61)

Track List

1. The Birth of Aphrodite (Intro) [Live from Aphrodite/Les Folies]
2. Aphrodite (Live from Aphrodite/Les Folies)
3. The One (Live from Aphrodite/Les Folies)
4. Wow (Live from Aphrodite/Les Folies)
5. Illusion (Live from Aphrodite/Les Folies)
6. I Believe in You (Live from Aphrodite/Les Folies)
7. Cupid Boy (Live from Aphrodite/Les Folies)
8. Spinning Around (Live from Aphrodite/Les Folies)
9. Get Outta My Way (Live from Aphrodite/Les Folies)
10. What Do I Have to Do (Live from Aphrodite/Les Folies)
11. Everything Is Beautiful (Live from Aphrodite/Les Folies)
12. Slow (Live from Aphrodite/Les Folies)
13. Confide in Me (Intro) [Live from Aphrodite/Les Folies]
14. Confide in Me (Live from Aphrodite/Les Folies)
15. Can't Get You Out of My Head (Live from Aphrodite/Les Folies)
16. In My Arms (Live from Aphrodite/Les Folies)
17. Looking for an Angel (Live from Aphrodite/Les Folies)l
18. Closer (Live from Aphrodite/Les Folies)
19. There Must Be an Angel (Playing With My Heart) [Live from Aphrodite/Les Folies]
20. Love At First Sight / Can't Beat the Feeling (Live from Aphrodite/Les Folies)
21. If You Don't Love Me (Live from Aphrodite/Les Folies)
22. Better the Devil You Know (Live from Aphrodite/Les Folies)
23. Better Than Today (Live from Aphrodite/Les Folies)
24. Put Your Hands Up (If You Feel Love) [Live from Aphrodite/Les Folies]
25. Million Dollar Mermaid (Intro) [Live from Aphrodite/Les Folies]
26. On a Night Like This (Live from Aphrodite/Les Folies)
27. All the Lovers (Live from Aphrodite/Les Folies)
28. Just Add Water (Documentary)

Формат 3d: Anamorph OverUnder
Качество: BDRip
Контейнер: MKV
Видео: AVC / 1920х1080p / 23,976 fps / 15,7 Mbps
Аудио: AC3 / 6 ch / 640 Kbps / 48 KHz

Скриншоты



Gif анимация скриншотов



МИ

Общее
Уникальный идентификатор : 185392923374805179177427130711773718142 (0x8B7960D5AE27DEEFA785325AE6F2A67E)
Полное имя : Aphrodite Les Folies - Live In London_Half_OU.mkv
Формат : Matroska
Версия формата : Version 2
Размер файла : 14,0 Гбайт
Продолжительность : 2 ч. 0 м.
Общий поток : 16,7 Мбит/сек
Дата кодирования : UTC 2011-12-20 15:52:31
Программа кодирования : mkvmerge v5.0.0 ('Die Wahre Liebe') built on Sep 25 2011 20:33:49
Библиотека кодирования : libebml v1.2.2 + libmatroska v1.3.0
Видео
Идентификатор : 1
Формат : AVC
Формат/Информация : Advanced Video Codec
Профиль формата : High@L4.1
Параметр CABAC формата : Да
Параметр ReFrames формата : 4 кадра
Идентификатор кодека : V_MPEG4/ISO/AVC
Продолжительность : 2 ч. 0 м.
Битрейт : 15,7 Мбит/сек
Ширина : 1920 пикселей
Высота : 1080 пикселей
Соотношение сторон : 16:9
Частота кадров : 23,976 кадра/сек
Цветовое пространство : YUV
Субдискретизация насыщенности : 4:2:0
Битовая глубина : 8 бит
Тип развёртки : Прогрессивная
Бит/(Пиксели*Кадры) : 0.316
Размер потока : 13,2 Гбайт (94%)
Заголовок : Rip By TopGun
Библиотека кодирования : x264 core 116 r2074 2641b9e
Настройки программы : cabac=1 / ref=4 / deblock=1:-3:-3 / analyse=0x3:0x133 / me=umh / subme=9 / psy=1 / psy_rd=1.00:0.05 / mixed_ref=1 / me_range=16 / chroma_me=1 / trellis=2 / 8x8dct=1 / cqm=0 / deadzone=21,11 / fast_pskip=1 / chroma_qp_offset=-3 / threads=6 / sliced_threads=0 / nr=0 / decimate=1 / interlaced=0 / bluray_compat=0 / constrained_intra=0 / bframes=7 / b_pyramid=2 / b_adapt=2 / b_bias=0 / direct=3 / weightb=1 / open_gop=0 / weightp=2 / keyint=250 / keyint_min=23 / scenecut=40 / intra_refresh=0 / rc_lookahead=60 / rc=crf / mbtree=1 / crf=18.0 / qcomp=0.60 / qpmin=10 / qpmax=69 / qpstep=4 / vbv_maxrate=50000 / vbv_bufsize=50000 / crf_max=0.0 / nal_hrd=none / ip_ratio=1.40 / aq=1:0.70
Язык : English
Default : Да
Forced : Нет
Аудио
Идентификатор : 2
Формат : AC-3
Формат/Информация : Audio Coding 3
Расширение режима : CM (complete main)
Идентификатор кодека : A_AC3
Продолжительность : 2 ч. 0 м.
Вид битрейта : Постоянный
Битрейт : 640 Кбит/сек
Каналы : 6 каналов
Расположение каналов : Front: L C R, Side: L R, LFE
Частота : 48,0 КГц
Битовая глубина : 16 бит
Метод сжатия : С потерями
Размер потока : 550 Мбайт (4%)
Default : Да
Forced : Нет
Меню
00:00:00.000 : :1. The Birth of Aphrodite (Intro) [Live from Aphrodite/Les Folies]
00:02:20.474 : :2. Aphrodite (Live from Aphrodite/Les Folies)
00:07:21.775 : :3. The One (Live from Aphrodite/Les Folies)
00:11:13.631 : :4. Wow (Live from Aphrodite/Les Folies)
00:15:11.786 : :5. Illusion (Live from Aphrodite/Les Folies)
00:22:05.783 : :6. I Believe in You (Live from Aphrodite/Les Folies)
00:25:25.357 : :7. Cupid Boy (Live from Aphrodite/Les Folies)
00:30:57.981 : :8. Spinning Around (Live from Aphrodite/Les Folies)
00:34:41.288 : :9. Get Outta My Way (Live from Aphrodite/Les Folies)
00:38:13.458 : :10. What Do I Have to Do (Live from Aphrodite/Les Folies)
00:43:24.477 : :11. Everything Is Beautiful (Live from Aphrodite/Les Folies)
00:48:18.896 : :12. Slow (Live from Aphrodite/Les Folies)
00:54:19.840 : :13. Confide in Me (Intro) [Live from Aphrodite/Les Folies]
00:56:57.664 : :14. Confide in Me (Live from Aphrodite/Les Folies)
01:00:32.629 : :15. Can't Get You Out of My Head (Live from Aphrodite/Les Folies)
01:05:10.657 : :16. In My Arms (Live from Aphrodite/Les Folies)
01:08:52.211 : :17. Looking for an Angel (Live from Aphrodite/Les Folies)l
01:14:03.773 : :18. Closer (Live from Aphrodite/Les Folies)
01:17:23.347 : :19. There Must Be an Angel (Playing With My Heart) [Live from Aphrodite/Les Folies]
01:23:28.003 : :20. Love At First Sight / Can't Beat the Feeling (Live from Aphrodite/Les Folies)
01:27:53.810 : :21. If You Don't Love Me (Live from Aphrodite/Les Folies)
01:31:00.747 : :22. Better the Devil You Know (Live from Aphrodite/Les Folies)
01:39:03.938 : :23. Better Than Today (Live from Aphrodite/Les Folies)
01:42:31.937 : :24. Put Your Hands Up (If You Feel Love) [Live from Aphrodite/Les Folies]
01:46:25.170 : :25. Million Dollar Mermaid (Intro) [Live from Aphrodite/Les Folies]
01:48:30.212 : :26. On a Night Like This (Live from Aphrodite/Les Folies)
01:52:43.507 : :27. All the Lovers (Live from Aphrodite/Les Folies)
01:56:14.509 : :28. Just Add Water (Documentary)
Рип выполнен по просьбе
ash61!
Внимание! В релизе на 1 сек картинка сыплется в районе 01:14:03 (Такой уж исходник!)
Благодарности релизеру (25)

Торрент:

Статус:

Размер:

Зарегистрирован   [ 2012-05-06 21:31 ]

проверено

14 GB

 
 Мнение о фильме (1)





Спасибо! Релиз отменный. Все отлично. Сам концерт, музыка, хореография и цветовой подбор плясунов не понравились. Одни черные и какие то все пидарастичные, даже мужикастые тетки. Может транssвеститы))). Пара тройка приятных песен, интересный видеоряд на заднем плане, акробаты и очень хорошая постановка шоу, вкупе с поющими фонтанами. 3D впечатляет, даже аплодисменты перед камерой.