Торренты   
 
 

 

Ночь страха / Fright Night (Крэйг Гиллеспи) [2011 г., BDrip, 720р, OverUnder]

Рейтинг 3D:
1 голосов
10
Рейтинг фильма:
1 голосов
10
 
Вы должны быть авторизированы,
чтобы ставить оценки


Год выпуска: 2011
Страна: США, Индия
Студии: DreamWorks Pictures, Reliance Entertainment
Жанр: ужасы, триллер, комедия
Продолжительность: 01:45:57
Перевод: Профессиональный (полное дублирование)
Русские субтитры: нет-Режиссер:
Крэйг Гиллеспи / Craig Gillespie
В ролях:
Антон Ельчин, Колин Фаррелл, Тони Коллетт, Дэвид Теннант, Имоджен Путс, Кристофер Минц-Плассе, Дэйв Франко, Рейд Юинг, Уилл Дентон, Сандра Вергара, Эмили Монтаг, Крис Сарандон, Грэйс Фиппс, Челси Таварес-Описание:
Выпускник школы Чарли Брюстер находится на пике своей ученической карьеры: он популярен среди сверстников и встречается с самой очаровательной девушкой во всей школе. Он становится настолько крут, что начинает избегать своего когда-то лучшего друга Эда. Неприятности для Чарли начинаются, когда по соседству прописывается Джерри.
На первый взгляд он кажется хорошим парнем, но все же что-то с ним не так, хотя никто этого не замечает, даже мать Чарли. После анализа странного поведения соседа Чарли приходит к ужасному, но, увы, единственному верному заключению: под лживой маской Джерри скрывается кровожадный вампир, который сделал его район своими охотничьими угодьями.
Не в силах убедить кого бы то ни было в своей правоте, Чарли обращается за помощью и советом к популярному иллюзионисту из Лас-Вегаса Питеру Винсенту, рассчитывая, что кудесник поможет ему избавиться от монстра.-На встроенных ТВ-плейерах работать не будет!!!
-Качество: BDrip
Контейнер: MKV
Формат 3D: OverUnder / Вертикальная стереопара
Видео: x264, 1280x1440, 23.976 кадр/сек, 6,0 Мбит/сек
Аудио 1: русский; AC3, 6 каналов, 640 Кбит/сек, 48,0 КГц
Аудио 2: английский; AC3, 6 каналов, 640 Кбит/сек, 48,0 КГц (отдельно на Narod.Ru)

СКРИНШОТЫ

MI


Общее
Уникальный идентификатор : 248608526405287271487083642422402285361 (0xBB0842B2F8C714A09A9171E32D0CFF31)
Полное имя : M:\3D-RuGroup\FrightNight.3D.2011.BD3DRip.720p.OU.x264.AC3.Rus.mkv
Формат : Matroska
Версия формата : Version 2
Размер файла : 4,94 Гбайт
Продолжительность : 1 ч. 45 м.
Общий поток : 6679 Кбит/сек
Название фильма : FrightNight.3D.2011.BD3DRip.720p.OU.x264.AC3.Rus
Дата кодирования : UTC 2011-12-20 15:42:30
Программа кодирования : mkvmerge v3.4.0 ('Rapunzel') сборка от May 15 2010 09:38:20
Библиотека кодирования : libebml v0.8.0 + libmatroska v0.9.0
Видео
Идентификатор : 1
Формат : AVC
Формат/Информация : Advanced Video Codec
Профиль формата : High@L4.0
Параметр CABAC формата : Да
Параметр ReFrames формата : 4 кадра
Идентификатор кодека : V_MPEG4/ISO/AVC
Продолжительность : 1 ч. 45 м.
Битрейт : 5906 Кбит/сек
Ширина : 1280 пикселей
Высота : 1440 пикселей
Соотношение сторон : 0,889
Частота кадров : 23,976 кадра/сек
Цветовое пространство : YUV
Субдискретизация насыщенности : 4:2:0
Битовая глубина : 8 бит
Тип развёртки : Прогрессивная
Бит/(Пиксели*Кадры) : 0.134
Размер потока : 4,37 Гбайт (88%)
Заголовок : Rip by itsamna (aka AnTo}{@)
Библиотека кодирования : x264 core 116 r2074 2641b9e
Настройки программы : cabac=1 / ref=4 / deblock=1:-3:-3 / analyse=0x3:0x133 / me=umh / subme=9 / psy=1 / psy_rd=1.00:0.15 / mixed_ref=1 / me_range=16 / chroma_me=1 / trellis=2 / 8x8dct=1 / cqm=0 / deadzone=21,11 / fast_pskip=0 / chroma_qp_offset=-3 / threads=3 / sliced_threads=0 / nr=0 / decimate=1 / interlaced=0 / bluray_compat=0 / constrained_intra=0 / bframes=6 / b_pyramid=2 / b_adapt=2 / b_bias=0 / direct=3 / weightb=1 / open_gop=0 / weightp=2 / keyint=250 / keyint_min=23 / scenecut=40 / intra_refresh=0 / rc_lookahead=40 / rc=crf / mbtree=1 / crf=16.0 / qcomp=0.70 / qpmin=10 / qpmax=69 / qpstep=4 / ip_ratio=1.40 / aq=1:0.70
Язык : English
Аудио
Идентификатор : 2
Формат : AC-3
Формат/Информация : Audio Coding 3
Расширение режима : CM (complete main)
Идентификатор кодека : A_AC3
Продолжительность : 1 ч. 45 м.
Вид битрейта : Постоянный
Битрейт : 640 Кбит/сек
Каналы : 6 каналов
Расположение каналов : Front: L C R, Side: L R, LFE
Частота : 48,0 КГц
Битовая глубина : 16 бит
Метод сжатия : С потерями
Размер потока : 485 Мбайт (10%)
Заголовок : DUB AC3 5.1 640 Kbps
Язык : Russian
Меню
00:00:00.000 : :CHAPTER01
00:03:18.824 : :CHAPTER02
00:08:09.531 : :CHAPTER03
00:13:27.682 : :CHAPTER04
00:18:02.790 : :CHAPTER05
00:22:20.130 : :CHAPTER06
00:29:50.789 : :CHAPTER07
00:33:50.862 : :CHAPTER08
00:40:25.757 : :CHAPTER09
00:45:05.202 : :CHAPTER10
00:52:02.786 : :CHAPTER11
00:58:06.358 : :CHAPTER12
01:04:17.645 : :CHAPTER13
01:09:29.624 : :CHAPTER14
01:16:26.332 : :CHAPTER15
01:19:17.670 : :CHAPTER16
01:24:27.229 : :CHAPTER17
01:30:26.796 : :CHAPTER18
01:36:37.333 : :CHAPTER19
01:38:21.395 : :CHAPTER20
Благодарности релизеру (2)

Торрент:

Статус:

Размер:

Зарегистрирован   [ 2011-12-21 17:53 ]

проверено

4.94 GB