Торренты   
 
 

 

Пункт назначения 5 3D / Final Destination 5 3D (Стивен Куэйл) [2011 г., Anamorph SideBySide]

Рейтинг 3D:
149 голосов
8.5
Рейтинг фильма:
144 голосов
7.9
 
Вы должны быть авторизированы,
чтобы ставить оценки


Пункт назначения 5 3D / Final Destination 5 3D
Год выпуска: 2011
Страна: США
Жанр: Ужасы,Триллер
Продолжительность: 01:31:49
Перевод: Профессиональный (полное дублирование)
Режиссер: Стивен Куэйл
В ролях: Николас Д’Агосто, Эмма Белл, Майлз Фишер, Эллен Ро, Жаклин МакИннес Вуд, П.Дж. Бирн, Арлен Эскарпета, Дэвид Кокнер, Кортни Б. Вэнс, Тони Тодд
Описание: У Сэма Лоутона происходит жуткое видение: подвесной мост, на котором он находится со своими друзьями, рушится, и многие люди, включая его самого, погибают. Сэм начинает паниковать и уговаривает своих друзей и ещё нескольких «счастливчиков» уйти с моста. И как раз вовремя: как и предвидел Сэм, мост рушится на их глазах и множество людей погибает. Однако Сэм и его девушка Молли понимают, что смерть дала им лишь отсрочку, так как выжившие начинают погибать один за другим. Он должен понять, как обманув смерть однажды, обмануть её ещё раз, прежде чем настанет его очередь.
Доп. информация: Качество: BDRip 1080p
Видео: MPEG4 Video (H264) 1920x1080 23.98fps 11.0 Mbps
Аудио: № 1 Russian Dolby AC3 48000Hz 6ch 640 Kbps| Blu-ray |
Аудио: № 2 Ukrainian Dolby AC3 48000Hz 6ch 640 Kbps| Blu-ray |
Аудио: № 3 English DTS 48000Hz 6ch 1510 Kbps
Субтитры: Russian,English
Формат 3d: Anamorph SideBySide
Видео: MPEG4 Video (H264) 1920x1080 23.98fps 11.0 Mbps

Скриншоты




MediaInfo

Уникальный идентификатор : 221741291535721011106617874674019381246 (0xA6D1D1BF73B1325B8C53AE35F5EAAFFE)
Полное имя : D:\Punkt.naznachenija.5.3D.2011.D.BDRip.1080p.mkv
Формат : Matroska
Версия формата : Version 2
Размер файла : 9,04 Гбайт
Продолжительность : 1 ч. 31 м.
Общий поток : 14,1 Мбит/сек
Название фильма : Rip by - Seksi03
Дата кодирования : UTC 2011-12-21 16:08:02
Программа кодирования : mkvmerge v5.1.0 ('And so it goes') built on Nov 28 2011 23:58:28
Библиотека кодирования : libebml v1.2.3 + libmatroska v1.3.0
Видео
Идентификатор : 1
Формат : AVC
Формат/Информация : Advanced Video Codec
Профиль формата : High@L4.1
Параметр CABAC формата : Да
Параметр ReFrames формата : 4 кадра
Идентификатор кодека : V_MPEG4/ISO/AVC
Продолжительность : 1 ч. 31 м.
Битрейт : 11,0 Мбит/сек
Ширина : 1920 пикселей
Высота : 1080 пикселей
Соотношение сторон : 16:9
Частота кадров : 23,976 кадра/сек
Цветовое пространство : YUV
Субдискретизация насыщенности : 4:2:0
Битовая глубина : 8 бит
Тип развёртки : Прогрессивная
Бит/(Пиксели*Кадры) : 0.222
Размер потока : 7,07 Гбайт (78%)
Заголовок : Rip by - Seksi03
Библиотека кодирования : x264 core 120 r2120 0c7dab9
Настройки программы : cabac=1 / ref=4 / deblock=1:-3:-3 / analyse=0x3:0x113 / me=umh / subme=7 / psy=1 / psy_rd=1.00:0.15 / mixed_ref=1 / me_range=16 / chroma_me=1 / trellis=1 / 8x8dct=1 / cqm=0 / deadzone=21,11 / fast_pskip=1 / chroma_qp_offset=-3 / threads=18 / sliced_threads=0 / nr=0 / decimate=1 / interlaced=0 / bluray_compat=0 / constrained_intra=0 / bframes=3 / b_pyramid=2 / b_adapt=1 / b_bias=0 / direct=3 / weightb=1 / open_gop=0 / weightp=2 / keyint=250 / keyint_min=23 / scenecut=40 / intra_refresh=0 / rc_lookahead=40 / rc=crf / mbtree=1 / crf=16.0 / qcomp=0.60 / qpmin=10 / qpmax=69 / qpstep=4 / ip_ratio=1.40 / aq=1:1.00
Язык : English
Default : Нет
Forced : Нет
Аудио #1
Идентификатор : 2
Формат : AC-3
Формат/Информация : Audio Coding 3
Расширение режима : CM (complete main)
Идентификатор кодека : A_AC3
Продолжительность : 1 ч. 31 м.
Вид битрейта : Постоянный
Битрейт : 640 Кбит/сек
Каналы : 6 каналов
Расположение каналов : Front: L C R, Side: L R, LFE
Частота : 48,0 КГц
Битовая глубина : 16 бит
Метод сжатия : С потерями
Размер потока : 420 Мбайт (5%)
Язык : Russian
Default : Да
Forced : Да
Аудио #2
Идентификатор : 3
Формат : AC-3
Формат/Информация : Audio Coding 3
Расширение режима : CM (complete main)
Идентификатор кодека : A_AC3
Продолжительность : 1 ч. 31 м.
Вид битрейта : Постоянный
Битрейт : 640 Кбит/сек
Каналы : 6 каналов
Расположение каналов : Front: L C R, Side: L R, LFE
Частота : 48,0 КГц
Битовая глубина : 16 бит
Метод сжатия : С потерями
Размер потока : 420 Мбайт (5%)
Язык : Ukrainian
Default : Нет
Forced : Нет
Аудио #3
Идентификатор : 4
Формат : DTS
Формат/Информация : Digital Theater Systems
Идентификатор кодека : A_DTS
Продолжительность : 1 ч. 31 м.
Вид битрейта : Постоянный
Битрейт : 1510 Кбит/сек
Каналы : 6 каналов
Расположение каналов : Front: L C R, Side: L R, LFE
Частота : 48,0 КГц
Битовая глубина : 24 бит
Метод сжатия : С потерями
Размер потока : 992 Мбайт (11%)
Язык : English
Default : Нет
Forced : Нет
Текст #1
Идентификатор : 5
Формат : UTF-8
Идентификатор кодека : S_TEXT/UTF8
Идентификатор кодека/Информация : UTF-8 Plain Text
Язык : Russian
Default : Да
Forced : Да
Текст #2
Идентификатор : 6
Формат : UTF-8
Идентификатор кодека : S_TEXT/UTF8
Идентификатор кодека/Информация : UTF-8 Plain Text
Язык : English
Default : Нет
Forced : Нет
Остальные раздачи этого фильма (6)
Благодарности релизеру (18)

Торрент:

Статус:

Размер:

Зарегистрирован   [ 2011-12-22 10:21 ]

проверено

9.04 GB

 
 Мнение о фильме (32)

Пред.  1, 2






фильм для молодежи до 20 лет, один раз посмотреть можно для прикола
 

Качество фильма отличное. 3Д эффекты присутствуют. Но сам фильм дешевая страшилка.
 

Как бы... все что можно увидеть в очередной части "Пункт назначения" это новые, изощренные способы смертей. И ВСЁ! На этом весь интерес фильма заканчивается. Посмотрел весь но, исключительно ради 3D - оно вполне забавное местами.
 

Отличный фильм) девченкам понравился
 

Фильм неплохой, но как мне кажется он больше для молодежи
 

Качество фильма отличное. 3Д эффекты присутствуют. Особенно понравился сюжет с обрушением моста!
 

3Д хорошее.Фильм интересный в своем жанре.С удовольствием посмотрел на весь экран.
 

3D не присутствует, Я не понимаю тех людей которые дают оценку 3D, значит они его не видели.
 

megal, судя по вашим двум сообщениям - это вы не можете видеть 3Д (а по какой причине - особенности организма или технические вопросы - это уж сами разбирайтесь!).
 

3D Суперрр
 

ребята молодцы!!! фильм классный,3д вообще отличное огромное спасибо Вам!!!
 

Друзья дайте скорости очень хотим посмотреть в 3d
 

Страница 2 из 2

Пред.  1, 2