Торренты   
 
 

 

Кунг-фу Панда 2 / Kung Fu Panda 2 (Дженнифер Ю) [2011 г., BDRip 1080p, Full OverUnder]

Рейтинг 3D:
44 голосов
8.7
Рейтинг фильма:
44 голосов
8.5
 
Вы должны быть авторизированы,
чтобы ставить оценки


- 2011
США
семейный, мультфильм
Дублированный
Дженнифер Ю
01:30:21 -

Джек Блэк (Po), Анджелина Джоли (Tigress), Дастин Хоффман (Shifu), Гари Олдман (Shen), Джеки Чан (Monkey), Сет Роген (Mantis), Люси Лью (Viper), Дэвид Кросс (Crane), Джеймс Хонг (Mr. Ping), Мишель Йео (Soothsayer), Дэнни МакБрайд (Wolf Boss), Деннис Хейсбёрт (Master Ox)
-

Панда По наконец-то исполнит свою мечту, станет Воином Дракона и со своими друзьями и мастерами кунг-фу — Неистовой Пятеркой — защитит Великую Долину от страшного злодея и его легиона…
- OverUnder
AVC, h264, 1920х1648 , 23,976 кадр/сек, 11,4 Мбит/сек
Rus, AC-3, 6 каналов, 448 Кбит/сек, 48,0 КГц
Ukr, AC-3, 6 каналов, 448 Кбит/сек, 48,0 КГц
Eng, AC-3, 6 каналов, 640 Кбит/сек, 48,0 КГц -

Тык



Тык

Формат : Matroska
Размер файла : 8,33 Гбайт
Продолжительность : 1 ч. 30 м.
Общий поток : 13,2 Мбит/сек
Дата кодирования : UTC 2011-12-22 14:41:00
Программа кодирования : mkvmerge v3.4.0 ('Rapunzel') сборка от May 15 2010 09:38:20
Библиотека кодирования : libebml v0.8.0 + libmatroska v0.9.0
Видео
Идентификатор : 1
Формат : AVC
Формат/Информация : Advanced Video Codec
Профиль формата : High@L5.0
Параметр CABAC формата : Да
Параметр ReFrames формата : 4 кадры
Идентификатор кодека : V_MPEG4/ISO/AVC
Продолжительность : 1 ч. 30 м.
Битрейт : 11,4 Мбит/сек
Ширина : 1920 пикс.
Высота : 1648 пикс.
Соотношение сторон : 1,165
Частота кадров : 23,976 кадр/сек
Частота кадров в оригинале : 25,000 кадр/сек
Цветовое пространство : YUV
Подвыборка цветности : 4:2:0
Битовая глубина : 8 бит
Тип развёртки : Прогрессивная
Бит/(Пиксели*Кадры) : 0.150
Размер потока : 7,20 Гбайт (86%)
Библиотека кодирования : x264 core 119 r2106 07efeb4
Настройки программы : cabac=1 / ref=4 / deblock=1:-2:-2 / analyse=0x3:0x113 / me=umh / subme=10 / psy=1 / psy_rd=1.00:0.00 / mixed_ref=1 / me_range=16 / chroma_me=1 / trellis=2 / 8x8dct=1 / cqm=0 / deadzone=21,11 / fast_pskip=1 / chroma_qp_offset=-3 / threads=9 / sliced_threads=0 / nr=0 / decimate=1 / interlaced=0 / bluray_compat=0 / constrained_intra=0 / bframes=6 / b_pyramid=0 / b_adapt=2 / b_bias=0 / direct=3 / weightb=1 / open_gop=0 / weightp=2 / keyint=250 / keyint_min=23 / scenecut=40 / intra_refresh=0 / rc_lookahead=40 / rc=crf / mbtree=1 / crf=18.0 / qcomp=0.60 / qpmin=0 / qpmax=69 / qpstep=4 / ip_ratio=1.40 / aq=1:1.00
Аудио #1
Идентификатор : 2
Формат : AC-3
Формат/Информация : Audio Coding 3
Расширение режима : CM (complete main)
Идентификатор кодека : A_AC3
Продолжительность : 1 ч. 30 м.
Вид битрейта : Постоянный
Битрейт : 448 Кбит/сек
Канал(ы) : 6 канала(ов)
Расположение каналов : Front: L C R, Side: L R, LFE
Частота : 48,0 КГц
Битовая глубина : 16 бит
Метод сжатия : С потерями
Размер потока : 290 Мбайт (3%)
Язык : Russian
Аудио #2
Идентификатор : 3
Формат : AC-3
Формат/Информация : Audio Coding 3
Расширение режима : CM (complete main)
Идентификатор кодека : A_AC3
Продолжительность : 1 ч. 30 м.
Вид битрейта : Постоянный
Битрейт : 448 Кбит/сек
Канал(ы) : 6 канала(ов)
Расположение каналов : Front: L C R, Side: L R, LFE
Частота : 48,0 КГц
Битовая глубина : 16 бит
Метод сжатия : С потерями
Размер потока : 290 Мбайт (3%)
Язык : Ukrainian
Аудио #3
Идентификатор : 4
Формат : AC-3
Формат/Информация : Audio Coding 3
Расширение режима : CM (complete main)
Идентификатор кодека : A_AC3
Продолжительность : 1 ч. 30 м.
Вид битрейта : Постоянный
Битрейт : 640 Кбит/сек
Канал(ы) : 6 канала(ов)
Расположение каналов : Front: L C R, Side: L R, LFE
Частота : 48,0 КГц
Битовая глубина : 16 бит
Метод сжатия : С потерями
Размер потока : 414 Мбайт (5%)
Язык : English
На встроенных ТВ-плейерах показывать НЕ будет!!!
Остальные раздачи этого фильма (5)
Благодарности релизеру (3)

Торрент:

Статус:

Размер:

Зарегистрирован   [ 2011-12-22 19:42 ]

проверено

8.33 GB