Торренты   
 
 

 

Пункт назначения 5 в 3Д / Final Destination 5 3D (Стивен Куэйл / Steven Quale) [2011, BDrip, 1080p, Full OverUnder]

Рейтинг 3D:
149 голосов
8.5
Рейтинг фильма:
144 голосов
7.9
 
Вы должны быть авторизированы,
чтобы ставить оценки


Пункт назначения 5 / Final Destination 5

Год выпуска: 2011
Страна: США
Жанр: ужасы, триллер
Продолжительность: 01:31:49
Перевод: Профессиональный (дублированный)
Русские субтитры: нет
Режиссер на русском: Стивен Куэйл
Режиссер на английском: Steven Quale
В ролях: Николас Д’Агосто, Эмма Белл, Майлз Фишер, Эллен Ро, Жаклин МакИннес Вуд, П.Дж. Бирн, Арлен Эскарпета, Дэвид Кокнер, Кортни Б. Вэнс, Тони Тодд
Роли озвучивали: Даниил Эльдаров, Евгений Вальц, Мария Иващенко, Ирина Киреева, Диомид Виноградов, Денис Яковлев, Константин Карасик, Владислав Копп, Олег Куценко
Описание: У Сэма Лоутона происходит жуткое видение: подвесной мост, на котором он находится со своими друзьями, рушится, и многие люди, включая его самого, погибают. Сэм начинает паниковать и уговаривает своих друзей и ещё нескольких «счастливчиков» уйти с моста. И как раз вовремя: как и предвидел Сэм, мост рушится на их глазах и множество людей погибает. Однако Сэм и его девушка Молли понимают, что смерть дала им лишь отсрочку, так как выжившие начинают погибать один за другим. Он должен понять, как обманув смерть однажды, обмануть её ещё раз, прежде чем настанет его очередь.
На встроенных ТВ-плейерах работать не будет!!!
Качество: BDrip
Контейнер: MKV
Формат 3D: OverUnder / Вертикальная стереопара
Порядок ракурсов: левый ракурс первый
Видео кодек: x264
Аудио кодек: AC3
Видео: AVC / 1920х1600 / 23,976 кадр/сек / 17,8 Мбит/сек
Аудио 1: Русский / AC3 / 48 KHz / 5.1 ch / 640 Kbps
Аудио 2: Английский / AC3 / 48 KHz / 5.1 ch / 640 Kbps

MediaInfo

General
Complete name : D:\3D Кинофильмы\Пункт назначения 5 (2011).mkv
Format : Matroska
File size : 12.5 GiB
Duration : 1h 31mn
Overall bit rate : 19.4 Mbps
Encoded date : UTC 2011-12-23 14:47:22
Writing application : mkvmerge v3.4.0 ('Rapunzel') сборка от May 15 2010 09:38:20
Writing library : libebml v0.8.0 + libmatroska v0.9.0
Video
ID : 1
Format : AVC
Format/Info : Advanced Video Codec
Format profile : High@L5.0
Format settings, CABAC : Yes
Format settings, ReFrames : 5 frames
Muxing mode : Container profile=Unknown@5.0
Codec ID : V_MPEG4/ISO/AVC
Duration : 1h 31mn
Bit rate : 17.8 Mbps
Width : 1 920 pixels
Height : 1 600 pixels
Display aspect ratio : 1.200
Frame rate : 23.976 fps
Color space : YUV
Chroma subsampling : 4:2:0
Bit depth : 8 bits
Scan type : Progressive
Bits/(Pixel*Frame) : 0.241
Stream size : 11.4 GiB (91%)
Writing library : x264 core 119 r2106 07efeb4
Encoding settings : cabac=1 / ref=5 / deblock=1:-3:-3 / analyse=0x3:0x113 / me=umh / subme=9 / psy=1 / psy_rd=1.00:0.15 / mixed_ref=1 / me_range=16 / chroma_me=1 / trellis=2 / 8x8dct=1 / cqm=0 / deadzone=21,11 / fast_pskip=1 / chroma_qp_offset=-3 / threads=6 / sliced_threads=0 / nr=0 / decimate=1 / interlaced=0 / bluray_compat=0 / constrained_intra=0 / bframes=4 / b_pyramid=2 / b_adapt=1 / b_bias=0 / direct=3 / weightb=1 / open_gop=0 / weightp=2 / keyint=250 / keyint_min=23 / scenecut=40 / intra_refresh=0 / rc_lookahead=40 / rc=crf / mbtree=1 / crf=18.0 / qcomp=0.60 / qpmin=10 / qpmax=69 / qpstep=4 / ip_ratio=1.40 / aq=1:1.00
Audio #1
ID : 2
Format : AC-3
Format/Info : Audio Coding 3
Mode extension : CM (complete main)
Codec ID : A_AC3
Duration : 1h 31mn
Bit rate mode : Constant
Bit rate : 640 Kbps
Channel(s) : 6 channels
Channel positions : Front: L C R, Side: L R, LFE
Sampling rate : 48.0 KHz
Bit depth : 16 bits
Stream size : 420 MiB (3%)
Language : Russian
Audio #2
ID : 3
Format : AC-3
Format/Info : Audio Coding 3
Mode extension : CM (complete main)
Codec ID : A_AC3
Duration : 1h 31mn
Bit rate mode : Constant
Bit rate : 640 Kbps
Channel(s) : 6 channels
Channel positions : Front: L C R, Side: L R, LFE
Sampling rate : 48.0 KHz
Bit depth : 16 bits
Stream size : 420 MiB (3%)
Language : English

Скриншоты

Остальные раздачи этого фильма (6)
Благодарности релизеру (11)

Торрент:

Статус:

Размер:

Зарегистрирован   [ 2011-12-23 20:57 ]

проверено

12.46 GB

 
 Мнение о фильме (32)

1, 2  След.






Отличный фильм и 3D присутствует для всех фанатов серии рекомендую.
 

Такое 3Д видел только в ДЕМО,а фильм "тяжеловат",но изображение - ОТЛИЧНОЕ!
 

Обычное 3D. Если ищете нечто особенное, то не найдете. Хотя несколько моментов впечатляют. Сам фильм хороший.
 

отличный фильм
 

Фильм нормальный. 3д неплохое. Есть моментики конечно :)
 

3-D офигенное,есть пара вылетов.
 

ху.... полная все пункты назначения деградация мозга ето разве что 10 летни детям смотреть американци деградируют наш без тогу тупой народ
 

Писать научись Radmyn кинокритик XD.
 

супер фильм хор 3д спасибо за ваши труды еще Десятое королевство и Приключения Шерлока Холмса и доктора Ватсона Будте любезны спасибо огромное
 
захаркристина Профиль 13-Май-2013 22:14

классный фильм и 3D очень даже на уровне
 

Отличный фильм.
 

фильм хорош
 

Год смотрю 3D,а шарахнулся только в этом фильме от арматуры! СУПЕР!!!
 

неожидала, что будет так здорово, несколько неожиданных моментов просто дух захватывает.Спасибо за информацию предоставленную на сайте.
 

Не так сильно как в 4 фильме,но все равно ОЧЕНЬ достойно.Сколько не убегай от смерти,если она пришла,то пришла.Интересно,а первые три фильма будут делать в 3D?
 

Фильм отличный 3д тоже)))
 

3 D чуть отстает по сравнению с 4 фильмом, а так по сюжету 5 поинтереснее, особенно концовку разнообразнее составили. 7 баллов по 10 бальной шкале....
 

Классный фильм
 

Фильм смотрел ранее в обычном 2д формате, такшта... вся серия на любителя ессно. 3D впечатлило.
 

фуфлень вообще все ети пункты деградация полная
 

Страница 1 из 2

1, 2  След.