Торренты   
 
 

 

Кунг-фу Панда 2 3D / Kung Fu Panda 2 3D (Дженнифер Ю) [2011 г., Anaglyph, red'cyan (Dubois)]

Оценка 3D

1   2%  2%  [ 1 ]
2   0%  0%  [ 0 ]
3   12%  12%  [ 5 ]
4   17%  17%  [ 7 ]
5   66%  66%  [ 26 ]

Всего проголосовало : 39

Рейтинг 3D:
44 голосов
8.7
Рейтинг фильма:
44 голосов
8.5
 
Вы должны быть авторизированы,
чтобы ставить оценки


Кунг-фу Панда 2 3D / Kung Fu Panda 2 3D
Год выпуска: 2011
Страна: США
Студия: DreamWorks Animation SKG
Жанр: Мультфильм, Боевик, Приключения, Комедия, Семейный
Продолжительность: 01:30:21
Перевод: Профессиональный (дублированный)
Режиссер на русском: Дженнифер Ю
Роли озвучивали: По - Михаил Галустян (Jack Black)
Тигрица - Ольга Зубкова (Angelina Jolie)
Шифу - Александр Хотченков (Dustin Hoffman)
Шен - Василий Дахненко (Gary Oldman)
Обезьяна - Диомид Виноградов (Jackie Chan)
Мантис - Олег Куценко (Seth Rogen)
Вайпер - (Lucy Liu)
Крэйн - Александр Гаврилин (David Cross)
Мистер Пинг - Олег Форостенко (James Hong)
Мастер Окс - Пётр Иващенко (Dennis Haysbert)
Мастер Крок - Дмитрий Поляновский (Jean-Claude Van Damme)
Описание: Панда По наконец-то исполнит свою мечту, станет Воином Дракона и со своими друзьями и мастерами кунг-фу — Неистовой Пятеркой — защитит Великую Долину от страшного злодея и его легиона…
Качество: BDrip
Контейнер: MKV
Формат 3d: Anaglyph (Дюбуа)
Цвета очков:

Видео: CCV1 1920x816 23.98fps 6097 Kbps
Аудио: Русский / Дублированный Dolby AC3 48000Hz 6ch 448 Kbps
Аудио 2: Английский Dolby AC3 48000Hz 6ch 640 Kbps

MediaInfo

General
Format : Matroska
Format version : Version 2
File size : 4.63 GiB
Duration : 1h 30mn
Overall bit rate : 7 331 Kbps
Movie name : Kung Fu Panda 2 - 3D (ash61)
Encoded date : UTC 2011-12-24 07:40:01
Writing application : mkvmerge v3.3.0 ('Language') built on Mar 24 2010 14:59:24
Writing library : libebml v0.8.0 + libmatroska v0.9.0
Video
ID : 1
Format : AVC
Format/Info : Advanced Video Codec
Format profile : High@L4.0
Format settings, CABAC : Yes
Format settings, ReFrames : 4 frames
Codec ID : V_MPEG4/ISO/AVC
Duration : 1h 30mn
Bit rate : 6 097 Kbps
Width : 1 920 pixels
Height : 816 pixels
Display aspect ratio : 2.35:1
Frame rate : 23.976 fps
Color space : YUV
Chroma subsampling : 4:2:0
Bit depth : 8 bits
Scan type : Progressive
Bits/(Pixel*Frame) : 0.162
Stream size : 3.85 GiB (83%)
Title : Anaglyph Dubois by Boss-Master
Writing library : x264 core 115 r1995 c1e60b9
Encoding settings : cabac=1 / ref=4 / deblock=1:-2:-2 / analyse=0x3:0x113 / me=umh / subme=9 / psy=1 / psy_rd=1.00:0.15 / mixed_ref=1 / me_range=16 / chroma_me=1 / trellis=2 / 8x8dct=1 / cqm=0 / deadzone=21,11 / fast_pskip=1 / chroma_qp_offset=-3 / threads=6 / sliced_threads=0 / nr=0 / decimate=1 / interlaced=0 / bluray_compat=0 / constrained_intra=0 / bframes=6 / b_pyramid=0 / b_adapt=2 / b_bias=0 / direct=3 / weightb=1 / open_gop=0 / weightp=2 / keyint=250 / keyint_min=23 / scenecut=40 / intra_refresh=0 / rc_lookahead=40 / rc=crf / mbtree=1 / crf=18.0 / qcomp=0.60 / qpmin=10 / qpmax=69 / qpstep=4 / ip_ratio=1.40 / aq=1:1.00
Language : Russian
Audio #1
ID : 2
Format : AC-3
Format/Info : Audio Coding 3
Mode extension : CM (complete main)
Codec ID : A_AC3
Duration : 1h 30mn
Bit rate mode : Constant
Bit rate : 448 Kbps
Channel(s) : 6 channels
Channel positions : Front: L C R, Side: L R, LFE
Sampling rate : 48.0 KHz
Bit depth : 16 bits
Compression mode : Lossy
Delay relative to video : 24ms
Stream size : 290 MiB (6%)
Language : Russian
Audio #2
ID : 3
Format : AC-3
Format/Info : Audio Coding 3
Mode extension : CM (complete main)
Codec ID : A_AC3
Duration : 1h 30mn
Bit rate mode : Constant
Bit rate : 640 Kbps
Channel(s) : 6 channels
Channel positions : Front: L C R, Side: L R, LFE
Sampling rate : 48.0 KHz
Bit depth : 16 bits
Compression mode : Lossy
Stream size : 414 MiB (9%)
Language : English
Menu
00:00:00.000 : :01
00:03:53.275 : :02
00:10:34.342 : :03
00:16:08.426 : :04
00:21:14.732 : :05
00:29:55.627 : :06
00:36:52.877 : :07
00:41:13.179 : :08
00:49:43.814 : :09
00:54:05.826 : :10
00:58:53.780 : :11
01:05:08.196 : :12
01:11:42.798 : :13
01:15:30.901 : :14
01:21:14.787 : :15

Скриншоты

Остальные раздачи этого фильма (5)
Благодарности релизеру (0)

Торрент:

Статус:

Размер:

Зарегистрирован   [ 2011-12-25 14:23 ]

проверено

4.63 GB