Торренты   
 
 


Глюк'OZA - Nowбой [2011 г., Anamorph OverUnder]

Рейтинг 3D:
12 голосов
4.4
Рейтинг фильма:
11 голосов
3.5
 
Вы должны быть авторизированы,
чтобы ставить оценки


Глюк'OZA - Nowбой
Год выпуска: 2011
Страна: Россия
Жанр: Музыка, Поп
Продолжительность: 01:37:46
Описание: "Новый грандиозный проект певицы Глюк'озы! Живой 3D концерт "NOWБОЙ" на диске Blue Ray! Концерт представлен в двух форматах - 3D и 2D. Поклонники певицы сами могут выбрать удобный для просмотра формат и получить музыкальное шоу нового поколения.
Программа концерта содержит, как старые, любимые всеми хиты певицы, так и новые песни. "Невеста", "Снег идёт", "Шуга" и многие другие знаковые композиции порадуют зрителя вместе с новыми, но уже полюбившимися хитами "Взмах", "Вот такая любовь", "Следы слёз" и многими другими. В концерте собраны только лучшие песни. Каждый номер - это яркое сочетание световых эффектов, нереальных костюмов, хореографии и великолепного звука. Современное звучание и высокотехнологичная съёмка концерта позволит зрителю побывать на живом выступлении Глюк'озы не выходя из дома!
Живой 3D концерт Глюк'озы "NOWБОЙ" на диске Blue Ray - новый уровень музыкального видео!"
Доп. информация: В районе 00:05:18 имеется мелкий секундный глюк - такой был исходный образ БД.

TrackList

01. Intro
02. Пипец
03. I've just committed a crime
04. Ля мур
05. Снег идет
06. Глюк'oZa nostra
07. Взмах
08. Шуга
09. Kozanostra
10. Вот такая любовь
11. High sign
12. Аста ла виста
13. Sugar
14. Москва
15. Невеста
16. Жениха хотела
17. Дочка
18. Goodbye
19. Танцуй, Россия!!!
20. Бабочки
21. Швайне
22. Maybe
23. Малыш
24. Schweine
25. Выстрел в спину
26. Карина
Проверено на встроенном плейере ТВ Samsung UE-C7000 Rip by TopGun--Формат 3d: Anamorph OverUnder
Качество: BDrip
Контейнер: MKV
Видео: AVC / 1920х1080p / 23,976 fps / 13.3 Mbps
Аудио: AC3 / 48 KHz / 2 ch / 448 Kbps

MediaInfo

General
UniqueID : 198200632353120278735668331224123368809 (0x951C0DA40E2B7796A61E0A3FD008E569)
Complete name : F:\Downloads\Glyuk'OZA-Nowboy(3D)2011.halfOU.AC3(TopGun).mkv
Format : Matroska
File size : 9.62 GiB
Duration : 1h 37mn
Overall bit rate : 14.1 Mbps
Movie name : Глюк' OZA - Nowбой - 3D (TopGun+Ash61)
Encoded date : UTC 2011-12-25 19:11:01
Writing application : mkvmerge v3.4.0 ('Rapunzel') сборка от May 15 2010 09:38:20
Writing library : libebml v0.8.0 + libmatroska v0.9.0
Video
ID : 1
Format : AVC
Format/Info : Advanced Video Codec
Format profile : High@L4.1
Format settings, CABAC : Yes
Format settings, ReFrames : 4 frames
Codec ID : V_MPEG4/ISO/AVC
Duration : 1h 37mn
Bit rate : 13.3 Mbps
Width : 1 920 pixels
Height : 1 080 pixels
Display aspect ratio : 16:9
Frame rate : 23.976 fps
Color space : YUV
Chroma subsampling : 4:2:0
Bit depth : 8 bits
Scan type : Progressive
Bits/(Pixel*Frame) : 0.268
Stream size : 9.12 GiB (95%)
Title : BDrip by TopGun
Writing library : x264 core 116 r2074 2641b9e
Encoding settings : cabac=1 / ref=4 / deblock=1:-3:-3 / analyse=0x3:0x133 / me=umh / subme=9 / psy=1 / psy_rd=1.00:0.05 / mixed_ref=1 / me_range=16 / chroma_me=1 / trellis=2 / 8x8dct=1 / cqm=0 / deadzone=21,11 / fast_pskip=1 / chroma_qp_offset=-3 / threads=6 / sliced_threads=0 / nr=0 / decimate=1 / interlaced=0 / bluray_compat=0 / constrained_intra=0 / bframes=7 / b_pyramid=2 / b_adapt=2 / b_bias=0 / direct=3 / weightb=1 / open_gop=0 / weightp=2 / keyint=250 / keyint_min=23 / scenecut=40 / intra_refresh=0 / rc_lookahead=60 / rc=crf / mbtree=1 / crf=18.0 / qcomp=0.60 / qpmin=10 / qpmax=69 / qpstep=4 / vbv_maxrate=50000 / vbv_bufsize=50000 / crf_max=0.0 / nal_hrd=none / ip_ratio=1.40 / aq=1:0.80
Audio
ID : 2
Format : AC-3
Format/Info : Audio Coding 3
Mode extension : CM (complete main)
Codec ID : A_AC3
Duration : 1h 37mn
Bit rate mode : Constant
Bit rate : 448 Kbps
Channel(s) : 2 channels
Channel positions : Front: L R
Sampling rate : 48.0 KHz
Bit depth : 16 bits
Compression mode : Lossy
Stream size : 314 MiB (3%)
Language : Russian
Menu
00:00:00.000 : :01. Intro
00:02:09.046 : :02. Пипец
00:05:18.610 : :03. I've just committed a crime
00:08:51.656 : :04. Ля мур
00:12:03.640 : :05. Снег идет
00:16:00.918 : :06. Глюк'oZa nostra
00:19:37.093 : :07. Взмах
00:23:21.525 : :08. Шуга
00:26:45.938 : :09. Kozanostra
00:30:23.321 : :10. Вот такая любовь
00:33:58.870 : :11. High sign
00:37:42.051 : :12. Аста ла виста
00:41:47.797 : :13. Sugar
00:45:15.338 : :14. Москва
00:48:55.432 : :15. Невеста
00:53:03.472 : :16. Жениха хотела
00:56:48.488 : :17. Дочка
01:00:21.660 : :18. Goodbye
01:04:01.880 : :19. Танцуй, Россия!!!
01:07:36.886 : :20. Бабочки
01:12:22.338 : :21. Швайне
01:17:17.633 : :22. Maybe
01:21:00.481 : :23. Малыш
01:25:09.187 : :24. Schweine
01:30:05.108 : :25. Выстрел в спину
01:33:42.826 : :26. Карина

Скриншоты

Господа копипастеры, пожалуйста, уважайте труд рипперов -
не "забывайте" указывать авторство в своих релизах!
Благодарности релизеру (15)

Торрент:

Статус:

Размер:

Зарегистрирован   [ 2011-12-26 18:02 ]

проверено

9.62 GB