Торренты   
 
 


Свадебный ролик [2011 г., Anamorph SideBySide]

Рейтинг 3D:
Пока никто не голосовал
Рейтинг фильма:
Пока никто не голосовал
 
Вы должны быть авторизированы,
чтобы ставить оценки


Свадебный ролик

Год выпуска: 2011
Страна: Украина
Жанр: Романтика
Продолжительность: 00:03:43
Описание: Еще один ролик с очередной свадьбы
Формат 3d: Anamorph SideBySide
Порядок ракурсов: Параллельная пара
General
Complete name : D:\Convert\Video\work3.mp4
Format : MPEG-4
Format profile : Base Media / Version 2
Codec ID : mp42
File size : 427 MiB
Duration : 3mn 42s
Overall bit rate : 16.1 Mbps
Encoded date : UTC 2011-12-28 16:07:56
Tagged date : UTC 2011-12-28 16:07:56
Video #2
ID : 2
Format : AVC
Format/Info : Advanced Video Codec
Format profile : High@L4.0
Format settings, CABAC : Yes
Format settings, ReFrames : 2 frames
Format settings, GOP : M=2, N=15
Muxing mode : Container profile=Baseline@4.0
Codec ID : avc1
Codec ID/Info : Advanced Video Coding
Duration : 3mn 42s
Bit rate mode : Variable
Bit rate : 16.0 Mbps
Width : 1 920 pixels
Height : 1 080 pixels
Display aspect ratio : 16:9
Frame rate mode : Constant
Frame rate : 29.970 fps
Color space : YUV
Chroma subsampling : 4:2:0
Bit depth : 8 bits
Scan type : Progressive
Bits/(Pixel*Frame) : 0.257
Stream size : 424 MiB (99%)
Language : English
Encoded date : UTC 2011-12-28 16:07:56
Tagged date : UTC 2011-12-28 16:07:56
Audio #1
ID : 1
Format : AAC
Format/Info : Advanced Audio Codec
Format version : Version 4
Format profile : LC
Format settings, SBR : No
Codec ID : 40
Duration : 3mn 42s
Bit rate mode : Constant
Bit rate : 128 Kbps
Channel(s) : 2 channels
Channel positions : Front: L R
Sampling rate : 48.0 KHz
Stream size : 3.40 MiB (1%)
Language : English
Encoded date : UTC 2011-12-28 16:07:56
Tagged date : UTC 2011-12-28 16:07:56
Благодарности релизеру (0)

Торрент:

Статус:

Размер:

Зарегистрирован   [ 2011-12-29 11:44 ]

проверено

427 MB