Торренты   
 
 

 

Кунг-фу Панда 2 3D / Kung Fu Panda 2 3D (Дженнифер Ю / Jennifer Yuh) [2011 г., OverUnder, BDRip 720p]

Рейтинг 3D:
44 голосов
8.7
Рейтинг фильма:
44 голосов
8.5
 
Вы должны быть авторизированы,
чтобы ставить оценки



Название: Кунг-фу Панда 2 3Д / Kung Fu Panda 2 3D
Год выпуска: 2011
Страна: США
Жанр: мультфильм, боевик, комедия, приключения, семейный
Студии: DreamWorks Animation
Продолжительность: 01:30:22
Перевод: Профессиональный (полное дублирование)
Субтитры: нет-Режиссер:
Дженнифер Ю / Jennifer Yuh
Сценарий:
Джонатан Айбел / Jonathan Aibel, Гленн Бергер / Glenn Berger
Продюсер:
Мелисса Кобб / Melissa Cobb, Джонатан Айбел / Jonathan Aibel, Гленн Бергер / Glenn Berger
Композитор:
Джон Пауэлл / John Powell, Ханс Циммер / Hans Zimmer
Роли озвучивали:
Джек Блэк (Po), Дастин Хоффман (Shifu), Анджелина Джоли (Tigress), Гари Олдман (Shen), Джеки Чан (Monkey), Сет Роген (Mantis), Люси Лью (Viper), Дэвид Кросс (Crane), Джеймс Хонг (Mr. Ping), Жан-Клод Ван Дамм (Master Croc), Деннис Хейсбёрт (Master Ox)
Роли дублировали:
Михаил Галустян (Po), Александр Хотченков (Shifu), Ольга Зубкова (Tigress), Василий Дахненко (Shen), Диомид Виноградов (Monkey), Олег Куценко (Mantis), Александр Гаврилин (Crane), Олег Форостенко (Mr. Ping), Дмитрий Поляновский (Master Croc), Пётр Иващенко (Master Ox)
Описание:
Панда По наконец-то исполнит свою мечту, станет Воином Дракона и со своими друзьями и мастерами кунг-фу — Неистовой Пятеркой — защитит Великую Долину от страшного злодея и его легиона…-На встроенных ТВ-плейерах работать не будет!!!
-Качество: BDrip
Контейнер: MKV
Формат 3D: OverUnder / Вертикальная стереопара
Видео кодек: x264
Аудио кодек: AC3
Видео: x264, 1280x1440, 23.976 кадр/сек, 7,0 Мбит/сек
Аудио 1: русский; AC3, 6 каналов, 448 Кбит/сек, 48,0 КГц
Аудио 2: украинский; AC3, 6 каналов, 448 Кбит/сек, 48,0 КГц
Аудио 3: английский; AC3, 6 каналов, 448 Кбит/сек, 48,0 КГц

СКРИНШОТЫ

MI


Общее
Уникальный идентификатор : 191521830711047367330085322213362753973 (0x9015C34BE8A96DDFAE0FDCE83037E1B5)
Полное имя : M:\3D-RuGroup\KungFuPanda-2.3D.2011.BD3DRip.720p.OU.x264.AC3.3D-RuGroup.mkv
Формат : Matroska
Версия формата : Version 2
Размер файла : 5,25 Гбайт
Продолжительность : 1 ч. 30 м.
Общий поток : 8313 Кбит/сек
Название фильма : KungFuPanda-2.3D.2011.BD3DRip.720p.OU.x264.AC3.3D-RuGroup
Дата кодирования : UTC 2011-12-29 10:49:29
Программа кодирования : mkvmerge v3.4.0 ('Rapunzel') сборка от May 15 2010 09:38:20
Библиотека кодирования : libebml v0.8.0 + libmatroska v0.9.0
Видео
Идентификатор : 1
Формат : AVC
Формат/Информация : Advanced Video Codec
Профиль формата : High@L4.0
Параметр CABAC формата : Да
Параметр ReFrames формата : 4 кадра
Идентификатор кодека : V_MPEG4/ISO/AVC
Продолжительность : 1 ч. 30 м.
Битрейт : 6803 Кбит/сек
Ширина : 1280 пикселей
Высота : 1440 пикселей
Соотношение сторон : 0,889
Частота кадров : 23,976 кадра/сек
Цветовое пространство : YUV
Субдискретизация насыщенности : 4:2:0
Битовая глубина : 8 бит
Тип развёртки : Прогрессивная
Бит/(Пиксели*Кадры) : 0.154
Размер потока : 4,29 Гбайт (82%)
Заголовок : Rip by itsamna (aka AnTo}{@)
Библиотека кодирования : x264 core 116 r2074 2641b9e
Настройки программы : cabac=1 / ref=4 / deblock=1:-3:-3 / analyse=0x3:0x133 / me=umh / subme=9 / psy=1 / psy_rd=1.00:0.15 / mixed_ref=1 / me_range=48 / chroma_me=1 / trellis=2 / 8x8dct=1 / cqm=0 / deadzone=21,11 / fast_pskip=0 / chroma_qp_offset=-3 / threads=3 / sliced_threads=0 / nr=0 / decimate=1 / interlaced=0 / bluray_compat=0 / constrained_intra=0 / bframes=6 / b_pyramid=2 / b_adapt=2 / b_bias=0 / direct=3 / weightb=1 / open_gop=0 / weightp=2 / keyint=250 / keyint_min=23 / scenecut=40 / intra_refresh=0 / rc_lookahead=40 / rc=crf / mbtree=1 / crf=17.0 / qcomp=0.70 / qpmin=0 / qpmax=69 / qpstep=4 / ip_ratio=1.40 / aq=1:0.70
Аудио #1
Идентификатор : 2
Формат : AC-3
Формат/Информация : Audio Coding 3
Расширение режима : CM (complete main)
Идентификатор кодека : A_AC3
Продолжительность : 1 ч. 30 м.
Вид битрейта : Постоянный
Битрейт : 448 Кбит/сек
Каналы : 6 каналов
Расположение каналов : Front: L C R, Side: L R, LFE
Частота : 48,0 КГц
Битовая глубина : 16 бит
Метод сжатия : С потерями
Размер потока : 290 Мбайт (5%)
Заголовок : DUB AC3 5.1 448 Kbps
Язык : Russian
Аудио #2
Идентификатор : 3
Формат : AC-3
Формат/Информация : Audio Coding 3
Расширение режима : CM (complete main)
Идентификатор кодека : A_AC3
Продолжительность : 1 ч. 30 м.
Вид битрейта : Постоянный
Битрейт : 448 Кбит/сек
Каналы : 6 каналов
Расположение каналов : Front: L C R, Side: L R, LFE
Частота : 48,0 КГц
Битовая глубина : 16 бит
Метод сжатия : С потерями
Размер потока : 290 Мбайт (5%)
Заголовок : DUB AC3 5.1 448 Kbps
Язык : Ukrainian
Аудио #3
Идентификатор : 4
Формат : AC-3
Формат/Информация : Audio Coding 3
Расширение режима : CM (complete main)
Идентификатор кодека : A_AC3
Продолжительность : 1 ч. 30 м.
Вид битрейта : Постоянный
Битрейт : 448 Кбит/сек
Каналы : 6 каналов
Расположение каналов : Front: L C R, Side: L R, LFE
Частота : 48,0 КГц
Битовая глубина : 16 бит
Метод сжатия : С потерями
Размер потока : 290 Мбайт (5%)
Заголовок : Original AC3 5.1 448 Kbps
Язык : English
Меню
00:00:00.000 : :CHAPTER01
00:03:53.275 : :CHAPTER02
00:10:34.342 : :CHAPTER03
00:16:08.426 : :CHAPTER04
00:21:14.732 : :CHAPTER05
00:29:55.627 : :CHAPTER06
00:36:52.877 : :CHAPTER07
00:41:13.179 : :CHAPTER08
00:49:43.814 : :CHAPTER09
00:54:05.826 : :CHAPTER10
00:58:53.780 : :CHAPTER11
01:05:08.196 : :CHAPTER12
01:11:42.798 : :CHAPTER13
01:15:30.901 : :CHAPTER14
01:21:14.787 : :CHAPTER15

Остальные раздачи этого фильма (5)
Благодарности релизеру (0)

Торрент:

Статус:

Размер:

Зарегистрирован   [ 2011-12-29 15:47 ]

проверено

5.25 GB