Торренты   
 
 


Сезон охоты в 3Д / Open Season 3D (Роджер Аллерс / Roger Allers, Джилл Калтон / Jill Culton, Энтони Стаччи / Anthony Stacchi) [2006, BDrip, 1080p, Full OverUnder]

Рейтинг 3D:
Пока никто не голосовал
Рейтинг фильма:
Пока никто не голосовал
 
Вы должны быть авторизированы,
чтобы ставить оценки


Сезон охоты / Open Season

Год выпуска: 2006
Страна: США
Жанр: комедия, приключения, семейный, мультфильм
Продолжительность: 01:26:15
Перевод: Профессиональный (дублированный)
Русские субтитры: нет
Режиссеры: Роджер Аллерс / Roger Allers, Джилл Калтон / Jill Culton, Энтони Стаччи / Anthony Stacchi
В ролях: Мартин Лоуренс, Эштон Катчер, Гэри Синиз, Дебра Мессинг, Билли Коннолли, Джорджия Энджел
Роли озвучивали: Фёдор Бондарчук, Олег Куликович, Михаил Боярский, Ксения Бржезовская, Максим Сергеев, Алексей Гурьев
Описание: Эллиот - ужасно болтливый и легкомысленный олень, у которого только одна проблема: как пережить охотничий сезон? А Буг - огромный и раздражительный медведь, у которого две проблемы: сезон охоты и... Эллиот! Если бы не толпы людей с ружьями, готовящихся наполнить их лес ураганной пальбой, эти двое никогда бы не стали иметь друг с другом никакого дела. Но выходит так, что только вместе они способны придумать, как им спасти свои шкуры. И вот, Бугаю и Эллиоту приходит в головы поистине блестящая идея. Так как лучшая защита - это нападение, они решают мобилизовать все зверье, чтобы превратить родную чащу в крепость и объявить двуногим злодеям партизанскую войну. Поистине, этот охотничий сезон будет полон сюрпризов. Для охотников - в первую очередь!..
На встроенных ТВ-плейерах работать не будет!!!
Качество: BDrip
Контейнер: MKV
Формат 3D: OverUnder / Вертикальная стереопара
Порядок ракурсов: левый ракурс первый
Видео кодек: x264
Аудио кодек: AC3
Видео: AVC / 1920х2160 / 23,976 кадр/сек / 17,0 Мбит/сек
Аудио 1: Русский / AC3 / 48 KHz / 5.1 ch / 448 Kbps
Аудио 2: Английский / AC3 / 48 KHz / 5.1 ch / 640 Kbps

MediaInfo

General
Complete name : D:\3D Мультфильмы\Сезон охоты (2006).mkv
Format : Matroska
File size : 11.1 GiB
Duration : 1h 26mn
Overall bit rate : 18.5 Mbps
Encoded date : UTC 2011-12-29 16:02:55
Writing application : mkvmerge v3.4.0 ('Rapunzel') сборка от May 15 2010 09:38:20
Writing library : libebml v0.8.0 + libmatroska v0.9.0
Video
ID : 1
Format : AVC
Format/Info : Advanced Video Codec
Format profile : High@L5.0
Format settings, CABAC : Yes
Format settings, ReFrames : 5 frames
Muxing mode : Container profile=Unknown@5.0
Codec ID : V_MPEG4/ISO/AVC
Duration : 1h 26mn
Bit rate : 17.0 Mbps
Width : 1 920 pixels
Height : 2 160 pixels
Display aspect ratio : 0.889
Frame rate : 23.976 fps
Color space : YUV
Chroma subsampling : 4:2:0
Bit depth : 8 bits
Scan type : Progressive
Bits/(Pixel*Frame) : 0.171
Stream size : 10.3 GiB (92%)
Writing library : x264 core 119 r2106 07efeb4
Encoding settings : cabac=1 / ref=5 / deblock=1:-3:-3 / analyse=0x3:0x113 / me=umh / subme=9 / psy=1 / psy_rd=1.00:0.15 / mixed_ref=1 / me_range=16 / chroma_me=1 / trellis=2 / 8x8dct=1 / cqm=0 / deadzone=21,11 / fast_pskip=1 / chroma_qp_offset=-3 / threads=6 / sliced_threads=0 / nr=0 / decimate=1 / interlaced=0 / bluray_compat=0 / constrained_intra=0 / bframes=4 / b_pyramid=2 / b_adapt=1 / b_bias=0 / direct=3 / weightb=1 / open_gop=0 / weightp=2 / keyint=250 / keyint_min=23 / scenecut=40 / intra_refresh=0 / rc_lookahead=40 / rc=crf / mbtree=1 / crf=18.0 / qcomp=0.60 / qpmin=10 / qpmax=69 / qpstep=4 / ip_ratio=1.40 / aq=1:1.00
Audio #1
ID : 2
Format : AC-3
Format/Info : Audio Coding 3
Mode extension : CM (complete main)
Codec ID : A_AC3
Duration : 1h 26mn
Bit rate mode : Constant
Bit rate : 448 Kbps
Channel(s) : 6 channels
Channel positions : Front: L C R, Side: L R, LFE
Sampling rate : 48.0 KHz
Bit depth : 16 bits
Stream size : 276 MiB (2%)
Language : Russian
Audio #2
ID : 3
Format : AC-3
Format/Info : Audio Coding 3
Mode extension : CM (complete main)
Codec ID : A_AC3
Duration : 1h 26mn
Bit rate mode : Constant
Bit rate : 640 Kbps
Channel(s) : 6 channels
Channel positions : Front: L C R, Side: L R, LFE
Sampling rate : 48.0 KHz
Bit depth : 16 bits
Stream size : 395 MiB (3%)
Language : English

Скриншоты

Благодарности релизеру (1)

Торрент:

Статус:

Размер:

Зарегистрирован   [ 2011-12-29 23:07 ]

проверено

11.13 GB