Торренты   
 
 

 

Лузеры. Живой концерт / Glee: The 3D Concert Movie [2011, BDRip, half1080p, Anamorph OverUnder] VO

Рейтинг 3D:
5 голосов
3.7
Рейтинг фильма:
6 голосов
2.7
 
Вы должны быть авторизированы,
чтобы ставить оценки


Лузеры. Живой концерт
Glee: The 3D Concert Movie

Год выпуска: 2011
Страна: США (Twentieth Century Fox)
Жанр: Музыка, Документальный
Продолжительность: 01:23:57
Перевод: Любительский одноголосый закадровый (Tomas&Minami)
Режиссеры: Кевин Танчароэн, Дженнифер Арнольд / Kevin Tancharoen, Jennifer Arnold-В фильме снимались:

Dianna Agron (Quinn), Chris Colfer (Kurt), Darren Criss (Blain), Kevin McHale (Artie), Lea Michele (Rachel), Cory Monteith (Finn), Heather Morris (Brittany), Amber Riley (Mercedes), Naya Rivera (Santana), Mark Salling (Puck), Jenna Ushkowitz (Tina), Harry Shum Jr. (Mike), Chord Overstreet (Sam), Ashley Fink (Lauren), Gwyneth Paltrow
-Описание: Фильм-концерт, снятый во время тура звезд сериала. Фанаты увидят не только музыкальные номера, но и самое интересное — закулисье.
Доп. информация: Интервью с актёрами и их поклонниками реализованы в 2Д.
За любезно предоставленный "чистый голос" большое спасибо Маторо!-Премьера: 6 августа 2011
Бюджет: $9 000 000
Кассовые сборы: $18 663 238

. .
-Качество: BDRip (by Ash61)
Контейнер: MKV
Формат 3D: Anamorph OverUnder / Вертикальная анаморфная стереопара
Порядок ракурсов: левый ракурс первый-Видео: AVC / 23,976 fps / 1920х1080p / 16.2 Mbps
Аудио:
#1 - Русский / AC3 / 48 KHz / 5.1 ch / 640 Kbps (VO - Tomas&Minami) Mix by Ash61
#2 - Английский / AC3 / 48 KHz / 5.1 ch / 640 Kbps (Original)
Субтитры: (SRT)
Внешние (UTF-8):
#1 - Русские Форсированные (названия песен + ...) (включены по умолчанию) Made by Ash61
#2 - Русские Полные (+ песни) (notabenoid)
#3 - English SDH
Вшитые (softsub):
#1 - Русские Форсированные (включены по умолчанию)

Треклист

1. Don't Stop Believin' – Finn, Rachel, New Directions
2. SING" – Rachel, Finn, New Directions
3. Empire State of Mind – Artie, Finn, Puck, Rachel, Mercedes, Santana, New Directions
4. I'm a Slave 4 U – Brittany
5. Fat Bottomed Girls – Puck
6. Don't Rain on My Parade – Rachel
7. P.Y.T. (Pretty Young Thing) – Artie
8. Ain't No Way – Mercedes
9. Jessie's Girl – Finn
10. Valerie – Santana, New Directions
11. Firework – Rachel
12. Teenage Dream – Blaine, Warblers
13. Silly Love Songs – Blaine, Warblers
14. Raise Your Glass – Blaine, Warblers
15. Happy Days Are Here Again / Get Happy – Kurt, Rachel
16. Safety Dance – Artie
17. Lucky – Sam, Quinn
18. River Deep – Mountain High – Mercedes, Santana
19. Forget You – Gwyneth Paltrow, New Directions
20. I Want to Hold Your Hand – Kurt
21. Born This Way - Kurt, Tina, Mercedes, New Directions
22. Loser Like Me – Rachel, Finn, Mercedes, Santana, New Directions
23. Don’t Stop Believin' (end credits) – Finn, Rachel, New Directions
24. Somebody to Love – Finn, Rachel, New Directions

MediaInfo

General
Unique ID : 226233206725806610548313568495561612279 (0xAA32EE43FAF873DDAD5B4A50E0041BF7)
Complete name : E:\Downloads\Glee.The3DConcertMovie(2011)3D-halfOU(Ash61)VO-Tomas&Minami\Glee.The3DConcertMovie(2011)3D-halfOU(Ash61)VO-Tomas&Minami.mkv
Format : Matroska
Format version : Version 2
File size : 10.4 GiB
Duration : 1h 23mn
Overall bit rate : 17.8 Mbps
Movie name : Glee: The 3D Concert Movie (ash61)
Encoded date : UTC 2013-09-15 16:35:55
Writing application : mkvmerge v5.8.0 ('No Sleep / Pillow') built on Sep 2 2012 15:37:04
Writing library : libebml v1.2.3 + libmatroska v1.3.0
Video
ID : 1
Format : AVC
Format/Info : Advanced Video Codec
Format profile : High@L4.1
Format settings, CABAC : Yes
Format settings, ReFrames : 4 frames
Codec ID : V_MPEG4/ISO/AVC
Duration : 1h 23mn
Bit rate : 16.2 Mbps
Width : 1 920 pixels
Height : 1 080 pixels
Display aspect ratio : 16:9
Frame rate mode : Constant
Frame rate : 23.976 fps
Color space : YUV
Chroma subsampling : 4:2:0
Bit depth : 8 bits
Scan type : Progressive
Bits/(Pixel*Frame) : 0.325
Stream size : 9.48 GiB (91%)
Title : BDRip by Ash61
Writing library : x264 core 119 r2106 07efeb4
Encoding settings : cabac=1 / ref=4 / deblock=1:-3:-3 / analyse=0x3:0x113 / me=umh / subme=9 / psy=1 / psy_rd=1.00:0.15 / mixed_ref=1 / me_range=16 / chroma_me=1 / trellis=2 / 8x8dct=1 / cqm=0 / deadzone=21,11 / fast_pskip=1 / chroma_qp_offset=-3 / threads=3 / sliced_threads=0 / nr=0 / decimate=1 / interlaced=0 / bluray_compat=0 / constrained_intra=0 / bframes=6 / b_pyramid=2 / b_adapt=2 / b_bias=0 / direct=3 / weightb=1 / open_gop=0 / weightp=2 / keyint=250 / keyint_min=23 / scenecut=40 / intra_refresh=0 / rc_lookahead=60 / rc=crf / mbtree=1 / crf=20.0 / qcomp=0.60 / qpmin=10 / qpmax=69 / qpstep=4 / ip_ratio=1.40 / aq=1:0.70
Language : English
Default : Yes
Forced : No
Audio #1
ID : 2
Format : AC-3
Format/Info : Audio Coding 3
Mode extension : CM (complete main)
Format settings, Endianness : Big
Codec ID : A_AC3
Duration : 1h 23mn
Bit rate mode : Constant
Bit rate : 640 Kbps
Channel(s) : 6 channels
Channel positions : Front: L C R, Side: L R, LFE
Sampling rate : 48.0 KHz
Bit depth : 16 bits
Compression mode : Lossy
Stream size : 384 MiB (4%)
Title : Одноголосый закадровый - Tomas&Minami
Language : Russian
Default : Yes
Forced : No
Audio #2
ID : 3
Format : AC-3
Format/Info : Audio Coding 3
Mode extension : CM (complete main)
Format settings, Endianness : Big
Codec ID : A_AC3
Duration : 1h 23mn
Bit rate mode : Constant
Bit rate : 640 Kbps
Channel(s) : 6 channels
Channel positions : Front: L C R, Side: L R, LFE
Sampling rate : 48.0 KHz
Bit depth : 16 bits
Compression mode : Lossy
Stream size : 384 MiB (4%)
Title : Original
Language : English
Default : No
Forced : No
Text
ID : 4
Format : UTF-8
Codec ID : S_TEXT/UTF8
Codec ID/Info : UTF-8 Plain Text
Title : Русские Форсированные (by Ash61)
Language : Russian
Default : Yes
Forced : No
Menu
00:00:00.000 : :01
00:02:56.968 : :02
00:06:21.548 : :03
00:09:02.000 : :04
00:10:53.736 : :05
00:13:18.214 : :06
00:15:10.243 : :07
00:18:05.710 : :08
00:20:13.170 : :09
00:23:37.875 : :10
00:26:23.582 : :11
00:27:58.260 : :12
00:30:08.098 : :13
00:32:05.549 : :14
00:34:11.466 : :15
00:36:01.576 : :16
00:38:24.260 : :17
00:39:31.619 : :18
00:41:59.767 : :19
00:44:34.589 : :20
00:46:54.145 : :21
00:47:53.120 : :22
00:50:54.802 : :23
00:53:26.662 : :24
00:55:38.585 : :25
00:57:15.474 : :26
00:59:34.321 : :27
01:03:00.193 : :28
01:03:58.418 : :29
01:06:01.958 : :30
01:07:55.488 : :31
01:10:06.619 : :32
01:11:04.760 : :33
01:14:15.826 : :34
01:16:09.398 : :35
01:18:55.689 : :36

Скриншоты

Для оценки 3Д - Анимированные скрины









15.09.2013 - Релиз обновлён - добавлена русская дорога и субтитры.
Желающие, скачайте заново торрент-файл.
Благодарности релизеру (9)

Торрент:

Статус:

Размер:

Зарегистрирован   [ 2013-09-15 23:27 ]

проверено

10.43 GB

 
 Мнение о фильме (5)





Круто, спасибо! Как раз смотрим сериал, будет интересно посмотреть и концерт.
 

Ну не знаю на любителя!Зря качал,, музыку в 3Д?
 

ash61, Вы могли бы отдельно выложить русскую дорожку с данного релиза.Заранее спасибо!!!
 

Русская дорога с данного релиза - http://files.mail.ru/5F06E5AA021847938490323922F17CBA
 

ash61 Спасибо!!!