Торренты   
 
 

 

Пункт назначения 5 3D / Final Destination 5 3D (Стивен Куэйл / Steven Quale) [2011, BDrip, 1080p, Anaglyph, red'cyan (Dubois)]

Рейтинг 3D:
149 голосов
8.5
Рейтинг фильма:
144 голосов
7.9
 
Вы должны быть авторизированы,
чтобы ставить оценки


Пункт назначения 5 3D / Final Destination 5 3D
Год выпуска: 2011
Страна: США
Студия: Warner Bros. Pictures, New Line Cinema, Practical
Жанр: Триллер, Ужасы
Продолжительность: 01:31:48
Перевод: Профессиональный (дублированный)
Русские субтитры: нет
Режиссер на русском: Стивен Куэйл
Режиссер на английском: Steven Quale
В ролях: Даниил Эльдаров, Евгений Вальц, Владислав Копп, Денис Яковлев, Константин Карасик, Олег Куценко, Диомид Виноградов, Мария Иващенко, Ирина Киреева, Юрий Маляров, Вероника Саркисова
Описание: У Сэма Лоутона происходит жуткое видение: подвесной мост, на котором он находится со своими друзьями, рушится, и многие люди, включая его самого, погибают. Сэм начинает паниковать и уговаривает своих друзей и ещё нескольких «счастливчиков» уйти с моста. И как раз вовремя: как и предвидел Сэм, мост рушится на их глазах и множество людей погибает. Однако Сэм и его девушка Молли понимают, что смерть дала им лишь отсрочку, так как выжившие начинают погибать один за другим. Он должен понять, как обманув смерть однажды, обмануть её ещё раз, прежде чем настанет его очередь.
Качество: BDrip
Контейнер: MKV
Формат 3d: Anaglyph (Дюбуа)
Цвета очков:

Видео: CCV1 1920x800 23.98fps 7 082 Kbps
Аудио: Русский / Дублированный Dolby AC3 48000Hz 6ch 640 Kbps
Аудио 2: English / Dolby AC3 48000Hz 6ch 640 Kbps

MediaInfo

General
Format : Matroska
Format version : Version 2
File size : 5.47 GiB
Duration : 1h 31mn
Overall bit rate : 8 532 Kbps
Encoded date : UTC 2011-12-30 12:41:06
Writing application : mkvmerge v3.3.0 ('Language') built on Mar 24 2010 14:59:24
Writing library : libebml v0.8.0 + libmatroska v0.9.0
Video
ID : 1
Format : AVC
Format/Info : Advanced Video Codec
Format profile : High@L4.0
Format settings, CABAC : Yes
Format settings, ReFrames : 4 frames
Codec ID : V_MPEG4/ISO/AVC
Duration : 1h 31mn
Bit rate : 7 082 Kbps
Width : 1 920 pixels
Height : 800 pixels
Display aspect ratio : 2.40:1
Frame rate : 23.976 fps
Color space : YUV
Chroma subsampling : 4:2:0
Bit depth : 8 bits
Scan type : Progressive
Bits/(Pixel*Frame) : 0.192
Stream size : 4.54 GiB (83%)
Title : Anaglyph Dubois by Boss-Master
Writing library : x264 core 115 r1995 c1e60b9
Encoding settings : cabac=1 / ref=4 / deblock=1:-2:-2 / analyse=0x3:0x113 / me=umh / subme=9 / psy=1 / psy_rd=1.00:0.15 / mixed_ref=1 / me_range=16 / chroma_me=1 / trellis=2 / 8x8dct=1 / cqm=0 / deadzone=21,11 / fast_pskip=1 / chroma_qp_offset=-3 / threads=6 / sliced_threads=0 / nr=0 / decimate=1 / interlaced=0 / bluray_compat=0 / constrained_intra=0 / bframes=6 / b_pyramid=0 / b_adapt=2 / b_bias=0 / direct=3 / weightb=1 / open_gop=0 / weightp=2 / keyint=250 / keyint_min=23 / scenecut=40 / intra_refresh=0 / rc_lookahead=40 / rc=crf / mbtree=1 / crf=18.0 / qcomp=0.60 / qpmin=10 / qpmax=69 / qpstep=4 / ip_ratio=1.40 / aq=1:1.00
Language : Russian
Audio #1
ID : 2
Format : AC-3
Format/Info : Audio Coding 3
Mode extension : CM (complete main)
Codec ID : A_AC3
Duration : 1h 31mn
Bit rate mode : Constant
Bit rate : 640 Kbps
Channel(s) : 6 channels
Channel positions : Front: L C R, Side: L R, LFE
Sampling rate : 48.0 KHz
Bit depth : 16 bits
Compression mode : Lossy
Stream size : 420 MiB (8%)
Language : Russian
Audio #2
ID : 3
Format : AC-3
Format/Info : Audio Coding 3
Mode extension : CM (complete main)
Codec ID : A_AC3
Duration : 1h 31mn
Bit rate mode : Constant
Bit rate : 640 Kbps
Channel(s) : 6 channels
Channel positions : Front: L C R, Side: L R, LFE
Sampling rate : 48.0 KHz
Bit depth : 16 bits
Compression mode : Lossy
Stream size : 420 MiB (8%)
Language : English
Menu
00:00:00.000 : en:00:00:00.000
00:09:51.341 : en:00:09:51.341
00:20:22.763 : en:00:20:22.763
00:30:36.543 : en:00:30:36.543
00:40:56.996 : en:00:40:56.996
00:51:19.076 : en:00:51:19.076
01:00:55.777 : en:01:00:55.777
01:09:02.847 : en:01:09:02.847
01:22:35.576 : en:01:22:35.576
01:26:23.303 : en:01:26:23.303

Скриншоты

Остальные раздачи этого фильма (6)
Благодарности релизеру (3)

Торрент:

Статус:

Размер:

Зарегистрирован   [ 2011-12-30 19:12 ]

проверено

5.47 GB

 
 Мнение о фильме (32)

1, 2  След.






Отличный фильм и 3D присутствует для всех фанатов серии рекомендую.
 

Такое 3Д видел только в ДЕМО,а фильм "тяжеловат",но изображение - ОТЛИЧНОЕ!
 

Обычное 3D. Если ищете нечто особенное, то не найдете. Хотя несколько моментов впечатляют. Сам фильм хороший.
 

отличный фильм
 

Фильм нормальный. 3д неплохое. Есть моментики конечно :)
 

3-D офигенное,есть пара вылетов.
 

ху.... полная все пункты назначения деградация мозга ето разве что 10 летни детям смотреть американци деградируют наш без тогу тупой народ
 

Писать научись Radmyn кинокритик XD.
 

супер фильм хор 3д спасибо за ваши труды еще Десятое королевство и Приключения Шерлока Холмса и доктора Ватсона Будте любезны спасибо огромное
 
захаркристина Профиль 13-Май-2013 22:14

классный фильм и 3D очень даже на уровне
 

Отличный фильм.
 

фильм хорош
 

Год смотрю 3D,а шарахнулся только в этом фильме от арматуры! СУПЕР!!!
 

неожидала, что будет так здорово, несколько неожиданных моментов просто дух захватывает.Спасибо за информацию предоставленную на сайте.
 

Не так сильно как в 4 фильме,но все равно ОЧЕНЬ достойно.Сколько не убегай от смерти,если она пришла,то пришла.Интересно,а первые три фильма будут делать в 3D?
 

Фильм отличный 3д тоже)))
 

3 D чуть отстает по сравнению с 4 фильмом, а так по сюжету 5 поинтереснее, особенно концовку разнообразнее составили. 7 баллов по 10 бальной шкале....
 

Классный фильм
 

Фильм смотрел ранее в обычном 2д формате, такшта... вся серия на любителя ессно. 3D впечатлило.
 

фуфлень вообще все ети пункты деградация полная
 

Страница 1 из 2

1, 2  След.