Торренты   
 
 


Призраки Салема / A Haunting in Salem (Шэйн Ван Дайк / Shane Van Dyke) [2011 г., Anamorph OverUnder]

Рейтинг 3D:
Пока никто не голосовал
Рейтинг фильма:
Пока никто не голосовал
 
Вы должны быть авторизированы,
чтобы ставить оценки


Призраки СалемаA Haunting in Salem
Год выпуска: 2011
Страна: США (The Asylum)
Жанр: Ужасы
Продолжительность: 01:25:48
Перевод: Одноголосый закадровый
Режиссер: Шэйн Ван Дайк / Shane Van Dyke
В ролях: Bill Oberst Jr., Courtney Abbiati, Ashley Barron, Nicholas Harsin, Sonny King, Catherine Lidstone, Joshua Roman, Jenna Stone, Carey Van Dyke, Gerald Webb
Описание: Когда новый шериф Салема (штат Массачусетс) обнаруживает, что он является жертвой многовекового проклятья, он встает на защиту своей семьи от мстительных призраков, которые теперь преследуют его.
Доп. информация: Прежде чем качать, рекомендую обратить внимание на рейтинги (несколькими строками ниже), почитать отзывы (к примеру на рутрекере) и запомнить уже "зарекомендовавшую" себя студию Asylum (одни названия их фильмов уже наводят на мысли...)!!! 3д в норме.
Выложил по просьбе.--Проверено на встроенном плейере ТВ Samsung UE-C7000 --Формат 3d: Anamorph OverUnder
Качество: BDrip
Контейнер: MKV
Видео: AVC / 1920х1080p / 23,976 fps / 6565 Kbps
Аудио#1: Русский / AC3 / 48 KHz / 5.1 ch / 448 Kbps
Аудио#2: Английский / AC3 / 48 KHz / 5.1 ch / 640 Kbps

MediaInfo

General
UniqueID : 184854764258162058889337046582124637135 (0x8B11BB8AAC7C04B1870E3C7E14D06BCF)
Complete name : F:\Downloads\AHauntingInSalem(3D)2011.halfOU.AC3(ash61).mkv
Format : Matroska
File size : 4.68 GiB
Duration : 1h 25mn
Overall bit rate : 7 808 Kbps
Movie name : A Haunting In Salem - 3D (Ash61)
Encoded date : UTC 2012-01-04 11:56:14
Writing application : mkvmerge v3.4.0 ('Rapunzel') сборка от May 15 2010 09:38:20
Writing library : libebml v0.8.0 + libmatroska v0.9.0
Video
ID : 1
Format : AVC
Format/Info : Advanced Video Codec
Format profile : High@L4.1
Format settings, CABAC : Yes
Format settings, ReFrames : 4 frames
Codec ID : V_MPEG4/ISO/AVC
Duration : 1h 25mn
Bit rate : 6 565 Kbps
Width : 1 920 pixels
Height : 1 080 pixels
Display aspect ratio : 16:9
Frame rate : 23.976 fps
Color space : YUV
Chroma subsampling : 4:2:0
Bit depth : 8 bits
Scan type : Progressive
Bits/(Pixel*Frame) : 0.132
Stream size : 3.94 GiB (84%)
Title : BDrip by Ash61
Writing library : x264 core 119 r2106 07efeb4
Encoding settings : cabac=1 / ref=4 / deblock=1:-3:-3 / analyse=0x3:0x113 / me=umh / subme=9 / psy=1 / psy_rd=1.00:0.15 / mixed_ref=1 / me_range=16 / chroma_me=1 / trellis=1 / 8x8dct=1 / cqm=0 / deadzone=21,11 / fast_pskip=1 / chroma_qp_offset=-3 / threads=3 / sliced_threads=0 / nr=0 / decimate=1 / interlaced=0 / bluray_compat=0 / constrained_intra=0 / bframes=6 / b_pyramid=2 / b_adapt=2 / b_bias=0 / direct=3 / weightb=1 / open_gop=0 / weightp=2 / keyint=250 / keyint_min=23 / scenecut=40 / intra_refresh=0 / rc_lookahead=60 / rc=crf / mbtree=1 / crf=18.0 / qcomp=0.70 / qpmin=0 / qpmax=69 / qpstep=4 / ip_ratio=1.40 / aq=1:0.70
Audio #1
ID : 2
Format : AC-3
Format/Info : Audio Coding 3
Mode extension : CM (complete main)
Codec ID : A_AC3
Duration : 1h 25mn
Bit rate mode : Constant
Bit rate : 448 Kbps
Channel(s) : 6 channels
Channel positions : Front: L C R, Side: L R, LFE
Sampling rate : 48.0 KHz
Bit depth : 16 bits
Compression mode : Lossy
Stream size : 275 MiB (6%)
Title : Edit by Ash61
Language : Russian
Audio #2
ID : 3
Format : AC-3
Format/Info : Audio Coding 3
Mode extension : CM (complete main)
Codec ID : A_AC3
Duration : 1h 25mn
Bit rate mode : Constant
Bit rate : 640 Kbps
Channel(s) : 6 channels
Channel positions : Front: L C R, Side: L R, LFE
Sampling rate : 48.0 KHz
Bit depth : 16 bits
Compression mode : Lossy
Stream size : 393 MiB (8%)
Language : English
Menu
00:00:00.000 : :01
00:05:20.445 : :02
00:13:50.455 : :03
00:21:27.495 : :04
00:25:46.211 : :05
00:32:57.934 : :06
00:44:11.649 : :07
00:52:57.174 : :08
00:59:03.623 : :09
01:04:22.108 : :10
01:10:56.919 : :11
01:17:06.372 : :12

Скриншоты

Господа копипастеры, пожалуйста, уважайте труд рипперов -
не "забывайте" указывать авторство в своих релизах!
Благодарности релизеру (6)

Торрент:

Статус:

Размер:

Зарегистрирован   [ 2012-01-04 19:20 ]

проверено

4.68 GB