Торренты   
 
 

 

Миссия Дарвина / G-Force 3D (Хойт Йетмен)[2009 г., BDRip 1080p , Full OverUnder]

Рейтинг 3D:
4 голосов
8.8
Рейтинг фильма:
3 голосов
8.7
 
Вы должны быть авторизированы,
чтобы ставить оценки


- 2009
США
Приключения, Комедия
Дублированный
Хойт Йетмен
01:24:35 -

Билл Найи, Сэм Рокуэлл, Уилл Арнетт, Джон Фавро, Зак Галифианакис, Николас Кейдж, Келли Гарнер, Пенелопа Круз, Тайлер Патрик Джонс, Стив Бушеми ...
-

«Миссия Дарвина» — это суперкоманда морских свинок, работающих на правительство США. Для выполнения специальных заданий зверьков подготовил один ученый, и теперь они могут проникать в места, недоступные для людей, вооружившись самыми современными технологиями.
В спецподразделение входят: Дарвин — командир отряда, спец по коммуникациям; Хуарес — единственная девушка в команде, спец по боевым искусствам; Бластер — «мускулы» команды. Вместе им предстоит разрушить планы злого гения, мечтающего захватить власть над миром.
- OverUnder
AVC , h264 , 1920х2160 , 23,976 кадр/сек , 15,6 Мбит/сек
Rus, AC-3, 6 каналов, 640 Кбит/сек, 48,0 КГц
Ukr, AC-3, 6 каналов, 640 Кбит/сек, 48,0 КГц
Eng, AC-3, 6 каналов, 640 Кбит/сек, 48,0 КГц -

Тык







Тык

Общее
Формат : Matroska
Размер файла : 11,0 Гбайт
Продолжительность : 1 ч. 28 м.
Общий поток : 17,9 Мбит/сек
Дата кодирования : UTC 2012-01-07 18:22:53
Программа кодирования : mkvmerge v3.4.0 ('Rapunzel') сборка от May 15 2010 09:38:20
Библиотека кодирования : libebml v0.8.0 + libmatroska v0.9.0
Видео
Идентификатор : 1
Формат : AVC
Формат/Информация : Advanced Video Codec
Профиль формата : High@L5.0
Параметр CABAC формата : Да
Параметр ReFrames формата : 4 кадры
Параметры GOP формата : M=1, N=16
Идентификатор кодека : V_MPEG4/ISO/AVC
Продолжительность : 1 ч. 28 м.
Битрейт : 15,6 Мбит/сек
Ширина : 1920 пикс.
Высота : 2160 пикс.
Соотношение сторон : 0,889
Частота кадров : 23,976 кадр/сек
Цветовое пространство : YUV
Подвыборка цветности : 4:2:0
Битовая глубина : 8 бит
Тип развёртки : Прогрессивная
Бит/(Пиксели*Кадры) : 0.157
Размер потока : 9,60 Гбайт (87%)
Заголовок : G-Force
Библиотека кодирования : x264 core 119 r2106 07efeb4
Настройки программы : cabac=1 / ref=4 / deblock=1:-2:-3 / analyse=0x3:0x113 / me=umh / subme=10 / psy=1 / psy_rd=1.00:0.00 / mixed_ref=1 / me_range=16 / chroma_me=1 / trellis=2 / 8x8dct=1 / cqm=0 / deadzone=21,11 / fast_pskip=1 / chroma_qp_offset=-3 / threads=9 / sliced_threads=0 / nr=0 / decimate=1 / interlaced=0 / bluray_compat=0 / constrained_intra=0 / bframes=6 / b_pyramid=0 / b_adapt=2 / b_bias=0 / direct=3 / weightb=1 / open_gop=0 / weightp=2 / keyint=250 / keyint_min=23 / scenecut=40 / intra_refresh=0 / rc_lookahead=40 / rc=crf / mbtree=1 / crf=18.0 / qcomp=0.60 / qpmin=0 / qpmax=69 / qpstep=4 / ip_ratio=1.40 / aq=1:1.00
Язык : English
Аудио #1
Идентификатор : 2
Формат : AC-3
Формат/Информация : Audio Coding 3
Расширение режима : CM (complete main)
Идентификатор кодека : A_AC3
Продолжительность : 1 ч. 28 м.
Вид битрейта : Постоянный
Битрейт : 640 Кбит/сек
Канал(ы) : 6 канала(ов)
Расположение каналов : Front: L C R, Side: L R, LFE
Частота : 48,0 КГц
Битовая глубина : 16 бит
Метод сжатия : С потерями
Размер потока : 404 Мбайт (4%)
Язык : Russian
Аудио #2
Идентификатор : 3
Формат : AC-3
Формат/Информация : Audio Coding 3
Расширение режима : CM (complete main)
Идентификатор кодека : A_AC3
Продолжительность : 1 ч. 28 м.
Вид битрейта : Постоянный
Битрейт : 640 Кбит/сек
Канал(ы) : 6 канала(ов)
Расположение каналов : Front: L C R, Side: L R, LFE
Частота : 48,0 КГц
Битовая глубина : 16 бит
Метод сжатия : С потерями
Размер потока : 404 Мбайт (4%)
Язык : Ukrainian
Аудио #3
Идентификатор : 4
Формат : AC-3
Формат/Информация : Audio Coding 3
Расширение режима : CM (complete main)
Идентификатор кодека : A_AC3
Продолжительность : 1 ч. 28 м.
Вид битрейта : Постоянный
Битрейт : 640 Кбит/сек
Канал(ы) : 6 канала(ов)
Расположение каналов : Front: L C R, Side: L R, LFE
Частота : 48,0 КГц
Битовая глубина : 16 бит
Метод сжатия : С потерями
Размер потока : 404 Мбайт (4%)
Язык : English
На встроенных ТВ-плейерах показывать НЕ будет!!!Кропить (обрезать черные полосы) не стал, так как на протяжении всего фильма они принимают активное участие в создании всеми любимого ВАУ эффекта, то есть вылетов из экрана.
Благодарности релизеру (4)

Торрент:

Статус:

Размер:

Зарегистрирован   [ 2012-01-08 13:54 ]

проверено

11.01 GB