Торренты   
 
 


Снежком. [2012 г., Anamorph SideBySide]

Рейтинг 3D:
Пока никто не голосовал
Рейтинг фильма:
Пока никто не голосовал
 
Вы должны быть авторизированы,
чтобы ставить оценки


Снежком.
Год выпуска: 2012
Страна: Россия
Жанр: Спорт, отдых
Продолжительность: 2 мин.
Описание: Снималось на спарку из двух SONY - TG 5. Света было очень мало, вытягивал шадоу хайлайтс и яркостью, получилась радужка - свечение вокруг людей. В движении тоже местами не айс, приходится отключать стабилизаторы чтоб синхронно было и любая дергатня бьет по глазам. Есть несколько интесреных моментов, но их бы переснять на камеры с 50 Пи и лучшей светосилой. Кстати снимал на базе 65 мм, т.к. в основном дальние и общие планы. И почему то цветопередача на левой камере на середине сьемке чуть изменилась. В поспродакшне подправил - скриншоты с 1-ой версии.
Формат 3d: Anamorph SideBySide
Видео: Format
: MPEG-PS File size : 424 MiB Duration : 2mn 15s Overall bit rate : 26.2 Mbps Video ID : 224 (0xE0) Format : MPEG Video Format version : Version 2 Format profile : High@High Format settings, BVOP : Yes Format settings, Matrix : Default Format settings, GOP : M=3, N=12 Duration : 2mn 15s Bit rate mode : Constant Bit rate : 25.0 Mbps Width : 1 280 pixels Height : 720 pixels Display aspect ratio : 16:9 Frame rate : 25.000 fps Standard : PAL Color space : YUV Chroma subsampling : 4:2:0 Bit depth : 8 bits Scan type : Progressive Compression mode : Lossy Bits/(Pixel*Frame) : 1.085 Stream size : 412 MiB (97%) Audio ID : 192 (0xC0) Format : MPEG Audio Format version : Version 1 Format profile : Layer 2 Duration : 2mn 15s Bit rate mode : Constant Bit rate : 224 Kbps Channel(s) : 2 channels Sampling rate : 48.0 KHz Compression mode : Lossy Delay relative to video : -80ms Stream size : 3.63 MiB (1%)

Скриншоты




Благодарности релизеру (0)

Торрент:

Статус:

Размер:

Зарегистрирован   [ 2012-01-09 22:18 ]

проверено

424 MB