Торренты   
 
 

 

Тайвань вне времени / Timeless Taiwan [2010 г., Anamorph OverUnder]

Рейтинг 3D:
1 голосов
8.0
Рейтинг фильма:
1 голосов
9.0
 
Вы должны быть авторизированы,
чтобы ставить оценки


Тайвань вне времениTimeless Taiwan
Год выпуска: 2010
Страна: Тайвань (Gene Young 3D Image)
Жанр: Документальный, Видовой
Продолжительность: 00:42:02
Перевод: Не требуется
Описание: В фильме показаны достопримечательности, обряды, природа, животные, девушки Тайваня.
Доп. информация: Кое-где имеется лёгкий (на доли кадра) временнОй рассинхрон ракурсов на динамичных объектах (любители 3Д видеосъёмки, снимавшие на "спарку", знают что это такое и что это невозможно исправить при монтаже). Можно посмотреть на последнем скрине (руки правого клоуна).
Едва заметно (только на пролетающих птицах, мошках...).--Проверено на встроенном плейере ТВ Samsung UE-C7000 --Формат 3d: Anamorph OverUnder
Качество: BDrip
Контейнер: MKV
Видео: AVC / 1920х1080p / 23,976 fps / 11.6 Mbps
Аудио: AC3 / 48 KHz / 5.1 ch / 640 Kbps

MediaInfo

General
UniqueID : 245365122715215551904653892814065020615 (0xB8979A8D0960CE249C78F638BA06AEC7)
Complete name : F:\Downloads\TimelessTaiwan(3D)2010.halfOU.AC3(ash61).mkv
Format : Matroska
File size : 3.67 GiB
Duration : 42mn 4s
Overall bit rate : 12.5 Mbps
Movie name : Timeless Taiwan - 3D (Ash61)
Encoded date : UTC 2012-01-10 09:50:40
Writing application : mkvmerge v3.4.0 ('Rapunzel') сборка от May 15 2010 09:38:20
Writing library : libebml v0.8.0 + libmatroska v0.9.0
Video
ID : 1
Format : AVC
Format/Info : Advanced Video Codec
Format profile : High@L4.1
Format settings, CABAC : Yes
Format settings, ReFrames : 4 frames
Codec ID : V_MPEG4/ISO/AVC
Duration : 42mn 3s
Bit rate : 11.6 Mbps
Width : 1 920 pixels
Height : 1 080 pixels
Display aspect ratio : 16:9
Frame rate : 23.976 fps
Color space : YUV
Chroma subsampling : 4:2:0
Bit depth : 8 bits
Scan type : Progressive
Bits/(Pixel*Frame) : 0.234
Stream size : 3.41 GiB (93%)
Title : BDrip by Ash61
Writing library : x264 core 119 r2106 07efeb4
Encoding settings : cabac=1 / ref=4 / deblock=1:-3:-3 / analyse=0x3:0x113 / me=umh / subme=9 / psy=1 / psy_rd=1.00:0.15 / mixed_ref=1 / me_range=16 / chroma_me=1 / trellis=2 / 8x8dct=1 / cqm=0 / deadzone=21,11 / fast_pskip=1 / chroma_qp_offset=-3 / threads=3 / sliced_threads=0 / nr=0 / decimate=1 / interlaced=0 / bluray_compat=0 / constrained_intra=0 / bframes=6 / b_pyramid=2 / b_adapt=2 / b_bias=0 / direct=3 / weightb=1 / open_gop=0 / weightp=2 / keyint=250 / keyint_min=23 / scenecut=40 / intra_refresh=0 / rc_lookahead=60 / rc=crf / mbtree=1 / crf=18.0 / qcomp=0.70 / qpmin=0 / qpmax=69 / qpstep=4 / ip_ratio=1.40 / aq=1:0.70
Audio
ID : 2
Format : AC-3
Format/Info : Audio Coding 3
Mode extension : CM (complete main)
Codec ID : A_AC3
Duration : 42mn 4s
Bit rate mode : Constant
Bit rate : 640 Kbps
Channel(s) : 6 channels
Channel positions : Front: L C R, Side: L R, LFE
Sampling rate : 48.0 KHz
Bit depth : 16 bits
Compression mode : Lossy
Stream size : 193 MiB (5%)
Menu
00:00:00.000 : :01
00:05:58.984 : :02
00:08:00.188 : :03
00:10:22.372 : :04
00:12:45.390 : :05
00:16:07.550 : :06
00:19:56.320 : :07
00:25:31.530 : :08
00:32:37.622 : :09
00:38:30.391 : :10

Достопримечательности, показанные в фильме

01. Мемориальный зал Сунь Ят-сена (Тайбэй)
02. Мемориальный парк мира (Тайбэй)
03. Национальный дворец-музей (Тайбэй)
04. Гранд отель (Тайбэй)
05. Мемориальный зал Чан Кай-ши (Тайбэй)
06. Музей Beitou Hot Springs
07. Монга - Храм Дракона
08. Гаосюн любви
09. День света Pinghsi (Тайбэй)
10. Фестиваль фонарей (Тайбэй)
11. Ши Фенлиао водопад Pingxi (Тайбэй)
12. Ущелье Тароко в Хуалиен
13. Голова королевы (Тайбэй, Йехлиу)
14. Заповедник Kenting Lung Hang
15. Су-Хуа, шоссе водной скалы
16. Вечный Золотой замок (Тайнань)
17. Тайнань-дом
18. Печь водяной змеи
19. Храм мучеников (Тайбэй)
20. Традиционные народные главные офицеры
21. Гаосюн Шушан парк
22. Лотосная Белая река (Тайнань)
23. Цветы Taiwan Phalaenopsis
24. Иланские Великие озёра
25. Nantou Seediq
26. Маяк Kenting Oluanpi
Господа копипастеры, пожалуйста, уважайте труд рипперов -
не "забывайте" указывать авторство в своих релизах!
Благодарности релизеру (3)

Торрент:

Статус:

Размер:

Зарегистрирован   [ 2012-01-10 16:54 ]

проверено

3.67 GB