Торренты   
 
 


3D Rap [2010 г., Anamorph SideBySide]

Рейтинг 3D:
Пока никто не голосовал
Рейтинг фильма:
Пока никто не голосовал
 
Вы должны быть авторизированы,
чтобы ставить оценки


3D Rap
Год выпуска: 2011
Страна: Россия
Жанр: Музыка, танцы
Продолжительность: 4 мин.
Описание: Танцы и гитара под минуса "Гуфи " Айс Бейби. Съемки в студии со светом.
Формат 3d: Anamorph SideBySide
Порядок ракурсов: Параллельная пара
Видео: Format : MPEG-PS
File size : 789 MiB Duration : 4mn 13s Overall bit rate : 26.1 Mbps Video ID : 224 (0xE0) Format : MPEG Video Format version : Version 2 Format profile : High@High Format settings, BVOP : Yes Format settings, Matrix : Default Format settings, GOP : M=3, N=12 Duration : 4mn 13s Bit rate mode : Constant Bit rate : 25.0 Mbps Width : 1 920 pixels Height : 1 080 pixels Display aspect ratio : 16:9 Frame rate : 25.000 fps Standard : PAL Color space : YUV Chroma subsampling : 4:2:0 Bit depth : 8 bits Scan type : Progressive Compression mode : Lossy Bits/(Pixel*Frame) : 0.482 Stream size : 766 MiB (97%) Audio ID : 192 (0xC0) Format : MPEG Audio Format version : Version 1 Format profile : Layer 2 Duration : 4mn 13s Bit rate mode : Constant Bit rate : 224 Kbps Channel(s) : 2 channels Sampling rate : 48.0 KHz Compression mode : Lossy Delay relative to video : -80ms Stream size : 6.77 MiB (1%)

Скриншоты




Благодарности релизеру (0)

Торрент:

Статус:

Размер:

Зарегистрирован   [ 2012-01-10 20:53 ]

проверено

789 MB