Торренты   
 
 


Пещера забытых снов / Cave of Forgotten Dreams [2010г, BDrip, 1080p, Anamorph OverUnder]

Рейтинг 3D:
Пока никто не голосовал
Рейтинг фильма:
Пока никто не голосовал
 
Вы должны быть авторизированы,
чтобы ставить оценки


Пещера забытых сновCave of Forgotten Dreams
Год выпуска: 2010
Страна: США, Германия, Канада, Франция, Великобритания (History Films, Creative Differences)
Жанр: Документальный, Археология
Продолжительность: 01:30:06
Перевод: Любительский (двухголосый закадровый)
Режиссер: Вернер Херцог, Werner Herzog
В фильме снимались: Werner Herzog, Dominique Baffier, Jean Clottes, Jean-Michel Geneste, Carole Fritz, Gilles Tosello, Michel Philippe, Julien Monney, Nicholas Conard, Wulf Hein, Maria Malina, Maurice Maurin
Описание: Пещера Шове на юге Франции закрыта для доступа общественности, поскольку более 300 рисунков с изображениями животных в ней являются древнейшими образцами пещерного искусства в мире и любое заметное изменение влажности воздуха в пещере может привести к их повреждению. Право доступа, лишь на несколько часов и с соблюдением ограничений, есть у немногих археологов. И только четыре члена съёмочной группы получили специальное разрешение от министра культуры Франции для съёмок этого фильма.--Проверено на встроенном плейере ТВ Samsung UE-C7000 --Формат 3d: Anamorph OverUnder
Качество: BDrip
Контейнер: MKV
Видео: AVC / 1920х1080p / 23,976 fps / 14.6 Mbps
Аудио#1: Русский / AC3 / 48 KHz / 5.1 ch / 448 Kbps
Аудио#2: Английский / AC3 / 48 KHz / 5.1 ch / 640 Kbps

MediaInfo

General
UniqueID : 223250088265915801545712633028884860983 (0xA7F4672B859DBA8B8830E82857689037)
Complete name : F:\Downloads\CaveOfForgottenDreams(3D)2010.halfOU.AC3(ash61).mkv
Format : Matroska
File size : 10.1 GiB
Duration : 1h 30mn
Overall bit rate : 16.0 Mbps
Movie name : Cave of Forgotten Dreams - 3D (Ash61)
Encoded date : UTC 2012-01-12 17:17:21
Writing application : mkvmerge v3.4.0 ('Rapunzel') сборка от May 15 2010 09:38:20
Writing library : libebml v0.8.0 + libmatroska v0.9.0
Video
ID : 1
Format : AVC
Format/Info : Advanced Video Codec
Format profile : High@L4.1
Format settings, CABAC : Yes
Format settings, ReFrames : 4 frames
Codec ID : V_MPEG4/ISO/AVC
Duration : 1h 30mn
Bit rate : 14.6 Mbps
Width : 1 920 pixels
Height : 1 080 pixels
Display aspect ratio : 16:9
Frame rate : 23.976 fps
Color space : YUV
Chroma subsampling : 4:2:0
Bit depth : 8 bits
Scan type : Progressive
Bits/(Pixel*Frame) : 0.294
Stream size : 9.19 GiB (91%)
Title : BDrip by Ash61
Writing library : x264 core 119 r2106 07efeb4
Encoding settings : cabac=1 / ref=4 / deblock=1:-3:-3 / analyse=0x3:0x113 / me=umh / subme=9 / psy=1 / psy_rd=1.00:0.15 / mixed_ref=1 / me_range=16 / chroma_me=1 / trellis=1 / 8x8dct=1 / cqm=0 / deadzone=21,11 / fast_pskip=1 / chroma_qp_offset=-3 / threads=3 / sliced_threads=0 / nr=0 / decimate=1 / interlaced=0 / bluray_compat=0 / constrained_intra=0 / bframes=6 / b_pyramid=2 / b_adapt=2 / b_bias=0 / direct=3 / weightb=1 / open_gop=0 / weightp=2 / keyint=250 / keyint_min=23 / scenecut=40 / intra_refresh=0 / rc_lookahead=60 / rc=crf / mbtree=1 / crf=19.0 / qcomp=0.60 / qpmin=10 / qpmax=69 / qpstep=4 / vbv_maxrate=40000 / vbv_bufsize=40000 / crf_max=0.0 / nal_hrd=none / ip_ratio=1.40 / aq=1:0.70
Audio #1
ID : 2
Format : AC-3
Format/Info : Audio Coding 3
Mode extension : CM (complete main)
Codec ID : A_AC3
Duration : 1h 30mn
Bit rate mode : Constant
Bit rate : 448 Kbps
Channel(s) : 6 channels
Channel positions : Front: L C R, Side: L R, LFE
Sampling rate : 48.0 KHz
Bit depth : 16 bits
Compression mode : Lossy
Stream size : 289 MiB (3%)
Title : Любительский DVO
Language : Russian
Audio #2
ID : 3
Format : AC-3
Format/Info : Audio Coding 3
Mode extension : CM (complete main)
Codec ID : A_AC3
Duration : 1h 30mn
Bit rate mode : Constant
Bit rate : 640 Kbps
Channel(s) : 6 channels
Channel positions : Front: L C R, Side: L R, LFE
Sampling rate : 48.0 KHz
Bit depth : 16 bits
Compression mode : Lossy
Stream size : 413 MiB (4%)
Language : English
Menu
00:00:00.000 : :01
00:06:18.044 : :02
00:15:17.917 : :03
00:22:46.782 : :04
00:27:25.269 : :05
00:32:27.529 : :06
00:42:29.172 : :07
00:50:31.195 : :08
00:55:06.720 : :09
01:02:24.741 : :10
01:13:02.003 : :11
01:24:36.029 : :12

Скриншоты

Господа копипастеры, пожалуйста, уважайте труд рипперов -
не "забывайте" указывать авторство в своих релизах!
Благодарности релизеру (10)

Торрент:

Статус:

Размер:

Зарегистрирован   [ 2012-01-12 23:00 ]

проверено

10.08 GB