Торренты   
 
 


Вейкборд в бассейне. [SideBySide]

Рейтинг 3D:
Пока никто не голосовал
Рейтинг фильма:
Пока никто не голосовал
 
Вы должны быть авторизированы,
чтобы ставить оценки


Вейкборд в бассейне.
Страна: Россия
Жанр: Спорт
Продолжительность: 5 мин.
Описание: Да-да, вейкеры не все признают снег и сноуборд и зимой продолжают тренировки на воде в бассейне.
Формат 3d: SideBySide
Порядок ракурсов: Параллельная пара
Видео: Format : AVI
Format : AVI
Format/Info : Audio Video Interleave
File size : 437 MiB
Duration : 4mn 48s
Overall bit rate : 12.7 Mbps
Video
ID : 0
Format : MPEG-4 Visual
Format profile : Advanced Simple@L5
Format settings, BVOP : 2
Format settings, QPel : No
Format settings, GMC : No warppoints
Format settings, Matrix : Default (H.263)
Muxing mode : Packed bitstream
Codec ID : XVID
Codec ID/Hint : XviD
Duration : 4mn 48s
Bit rate : 11.2 Mbps
Width : 2 560 pixels
Height : 720 pixels
Display aspect ratio : 3.556
Frame rate : 25.000 fps
Color space : YUV
Chroma subsampling : 4:2:0
Bit depth : 8 bits
Scan type : Progressive
Compression mode : Lossy
Bits/(Pixel*Frame) : 0.242
Stream size : 384 MiB (88%)
Writing library : XviD 1.2.1 (UTC 2008-12-04)
Audio
ID : 1
Format : PCM
Format settings, Endianness : Little
Format settings, Sign : Signed
Codec ID : 1
Codec ID/Hint : Microsoft
Duration : 4mn 48s
Bit rate mode : Constant
Bit rate : 1 536 Kbps
Channel(s) : 2 channels
Sampling rate : 48.0 KHz
Bit depth : 16 bits
Stream size : 52.9 MiB (12%)
Interleave, duration : 999 ms (24.97 video frames)
Interleave, preload duration : 1000 ms

Скриншоты




Благодарности релизеру (0)

Торрент:

Статус:

Размер:

Зарегистрирован   [ 2012-01-13 07:44 ]

проверено

437 MB