Торренты   
 
 


Челюсти 3D (2011) / Shark Night 3D (Дэвид Р. Эллис / David R. Ellis) [2011 г., Anamorph OverUnder]

Рейтинг 3D:
Пока никто не голосовал
Рейтинг фильма:
Пока никто не голосовал
 
Вы должны быть авторизированы,
чтобы ставить оценки


Челюсти 3D (2011) / Shark Night 3D
Год выпуска: 2011
Страна: США
Жанр: ужасы, триллер
Продолжительность: 01:30:19
Перевод: Профессиональный (полное дублирование)
Режиссер: Дэвид Р. Эллис / David R. Ellis
В ролях: : Сара Пэкстон (Sara), Дастин Миллиган (Nick), Крис Кармак (Dennis Crim), Кэтрин МакФи (Beth), Донал Лог (Sheriff Greg Sabin), Джоэль Мур (Gordon),Джошуа Леонард (Red), Синква Уоллс (Malik), Алисса Диаз (Maya), Крис Зилка (Blake), Джимми Ли мл. (Carl), Дэймон Липари (Keith)
Дублёры: Анна Штукатурова (Sara), Даниил Эльдаров (Nick), Михаил Тихонов (Dennis Crim), Ирина Киреева (Beth), Илья Исаев (Sheriff Greg Sabin), Александр Гаврилин (Gordon), Илья Хвостиков (Malik)
Описание: Сюжет фильма вращается вокруг группы подростков, учащихся колледжа, которые проводят свои выходные на воде в большом озере. Вскоре они обнаруживают, что зубастая опасность скрывается под ними, в непроглядной глубине...
Доп. информация: Бюджет: $25 000 000
Сборы в США: $18 877 153
Сборы в России: $5 437 182
Сборы в мире: $39 606 624
Мировая премьера: 31 августа 2011
Релиз на DVD: 17 ноября 2011, «Новый Диск»
Формат 3d: Anamorph OverUnder
Видео: 1920x1080 AVC 23.976 fps 12.4 Mbps
Аудио: AC3 448 Kbps 5.1

MI

General
Unique ID : 168348648403719580577546155723716462494 (0x7EA6C532C2870C1E037BA147C20E879E)
Complete name : C:\Users\igor\Videos\Челюсти 3D (2011).mkv
Format : Matroska
Format version : Version 2
File size : 7.83 GiB
Duration : 1h 30mn
Overall bit rate : 12.4 Mbps
Writing application : Lavf51.12.1
Writing library : Lavf51.12.1
Video
ID : 1
Format : AVC
Format/Info : Advanced Video Codec
Format profile : Baseline@L1.3
Format settings, CABAC : No
Format settings, ReFrames : 1 frame
Format settings, GOP : M=1, N=12
Codec ID : V_MPEG4/ISO/AVC
Duration : 1h 30mn
Bit rate : 11.7 Mbps
Width : 1 920 pixels
Height : 1 080 pixels
Display aspect ratio : 16:9
Frame rate : 23.976 fps
Color space : YUV
Chroma subsampling : 4:2:0
Bit depth : 8 bits
Scan type : Progressive
Bits/(Pixel*Frame) : 0.236
Stream size : 7.40 GiB (94%)
Language : Russian
Default : Yes
Forced : No
Audio
ID : 2
Format : AC-3
Format/Info : Audio Coding 3
Mode extension : CM (complete main)
Codec ID : A_AC3
Duration : 1h 30mn
Bit rate mode : Constant
Bit rate : 448 Kbps
Channel(s) : 6 channels
Channel positions : Front: L C R, Side: L R, LFE
Sampling rate : 44.1 KHz
Bit depth : 16 bits
Compression mode : Lossy
Stream size : 289 MiB (4%)
Language : Russian
Благодарности релизеру (0)

Торрент:

Статус:

Размер:

Зарегистрирован   [ 2012-01-13 17:27 ]

* не проверено

7.83 GB

 
Комментарии:

1, 2  След.






Кого не устраивает оформление поправьте пожалуйста.
качество самого 3D местами ни чего, а так слабенькое
Проверял на своем LG42LW575s все работает.
 

Вот это подарок! большое спасибо!))
 

А это настоящий 3D?
 

Неожиданно.Спасибо,забираем.
 

Качество кодирования судя по логу не очень..
Format profile : Baseline@L1.3
Format settings, CABAC : No
Format settings, ReFrames : 1 frame
 

avacha
Медиа инфо спрячьте под спойлер
 

avacha
Медиа инфо спрячьте под спойлер
Подзабыл как?
Напомните плиз
 

Буду качать !!!
Спасибо !!!
 

airbox
fab-rip
 

fab-rip
Тогда жду от elephant или Ash61
 

airbox
рип будет от Ash61.
 

от меня сегодня будет The Prodigies, если кому надо, вот только перевода нема...
 

Качество судя по скриншотам еще хуже чем качество судя по логам :)
 

Качество не очень, тем не мение спасибо за релиз, давно ждал! Фильм разочаровал ;(
 

а где скорость???
 

качество рипа не очень согласен но и качество 3D топорное, вообще фильм для одного просмотра, а будет рип от Ash61 я и сам качну так для коллекции
 

нее я точно качать небуду ! скрины уже в отврат бросают от качества ...! жду качества получше.
 

Да не просто скрины не совсем удачные!Сейчас просмотрел на перемотке - вполне смотрибельно!!! Релизеру РЕСПЕКТ!!!:)))
 

спасибо огромное!
 

Вполне смотрибельно для 3Д это лол))) Качество страдает! Скачал, удалил, раздача не удачная!
 

Страница 1 из 2

1, 2  След.