Торренты   
 
 


Франция с воздуха / France From Above [Anamorph SideBySide]

Рейтинг 3D:
Пока никто не голосовал
Рейтинг фильма:
Пока никто не голосовал
 
Вы должны быть авторизированы,
чтобы ставить оценки


Франция с воздухаFrance From Above
Год выпуска: 2011
Страна: Великобритания
Жанр: Документальный, Видовой
Продолжительность: 01:27:31
Перевод: Отсутствует (не обязателен)
Описание: Виды с воздуха живописнейших мест Франции.
Доп. информация: Захват со Sky 3D.
На скриншотах показаны только кое-какие из массы красивейших видов фильма.
К сожалению, качество рипа оставляет желать лучшего, но и за это спасибо (бывало и хуже)...--Проверено на встроенном плейере ТВ Samsung UE-C7000 --Формат 3d: Anamorph SideBySide
Качество: HDTVrip (by Olijack)
Контейнер: MKV
Видео: AVC / 1920х1080p / 25,000fps / 5 513 Kbps
Аудио: Английский / AC3 / 48 KHz / 2 ch / 384 Kbps

MediaInfo

General
UniqueID : 68327330127810257199400500546074182790 (0x33675D77EF7308020544967E8C760486)
Complete name : F:\Downloads\France From Above 3D.mkv
Format : Matroska
File size : 3.68 GiB
Duration : 1h 27mn
Overall bit rate : 6 016 Kbps
Writing application : Lavf52.64.2
Writing library : Lavf52.64.2
Video
ID : 1
Format : AVC
Format/Info : Advanced Video Codec
Format profile : High@L4.1
Format settings, CABAC : Yes
Format settings, ReFrames : 3 frames
Codec ID : V_MPEG4/ISO/AVC
Duration : 1h 27mn
Bit rate mode : Variable
Bit rate : 5 513 Kbps
Maximum bit rate : 7 000 Kbps
Width : 1 920 pixels
Height : 1 080 pixels
Display aspect ratio : 16:9
Frame rate : 25.000 fps
Standard : PAL
Color space : YUV
Chroma subsampling : 4:2:0
Bit depth : 8 bits
Scan type : Progressive
Bits/(Pixel*Frame) : 0.106
Stream size : 3.37 GiB (92%)
Language : English
Color primaries : BT.709-5, BT.1361, IEC 61966-2-4, SMPTE RP177
Transfer characteristics : BT.709-5, BT.1361
Matrix coefficients : BT.709-5, BT.1361, IEC 61966-2-4 709, SMPTE RP177
Audio
ID : 2
Format : AC-3
Format/Info : Audio Coding 3
Mode extension : CM (complete main)
Codec ID : A_AC3
Duration : 1h 27mn
Bit rate mode : Constant
Bit rate : 384 Kbps
Channel(s) : 2 channels
Channel positions : Front: L R
Sampling rate : 48.0 KHz
Bit depth : 16 bits
Compression mode : Lossy
Stream size : 240 MiB (6%)
Language : English / English
Господа копипастеры, пожалуйста, уважайте труд рипперов -
не "забывайте" указывать авторство (Olijack) в своих релизах!
Благодарности релизеру (2)

Торрент:

Статус:

Размер:

Зарегистрирован   [ 2012-01-13 18:54 ]

проверено

3.68 GB